JOMANDA
DJ YOSHITAKA

EXTREME

Level: 10
BPM: 90-195
Notes: 922

BPM: 195
1
口口口口 |----|
口口口口 |----|
口口口口 |----|
口口口口 |----|
2
口口口口 |①---|
口①②口 |②---|
口③④口 |③---|
口口口⑤ |④-⑤-|
3
①口口② |--①-|
口口口口 |--②-|
④口⑤口 |--③④|
③口口⑥ |⑤-⑥-|
4
口口口口 |①---|
口①②口 |②---|
口③④口 |③---|
口口口⑤ |④-⑤-|
5
①口口② |--①-|
口口口口 |--②-|
④口⑤口 |--③④|
③口口口 |⑤---|
6
口口口口 |①---|
口①②口 |②---|
口③④口 |③---|
口口口⑤ |④-⑤-|
7
①口口② |--①-|
口口口口 |--②-|
口口④口 |--③-|
③口口⑤ |④-⑤-|
8
口口口口 |----|
口口①口 |①---|
口②③口 |②---|
口口口口 |③---|
9
口口口口 |①---|
口①②口 |②---|
口③⑤口 |③-④-|
④口口⑥ |⑤-⑥-|
10
口口口口 |①---|
口①②口 |②---|
口③④口 |③---|
口口口⑤ |④-⑤-|
11
①口口② |--①-|
口口口口 |--②-|
④口⑤口 |--③④|
③口口⑥ |⑤-⑥-|
12
口口口口 |①---|
口①②口 |②---|
口③④口 |③---|
口口口⑤ |④-⑤-|
13
①口口② |--①-|
口口口口 |--②-|
④口⑤口 |--③④|
③口口口 |⑤---|
14
口口口口 |①---|
口①②口 |②---|
口③④口 |③---|
口口口口 |④---|
15
口口口口 |①---|
口①②口 |②---|
口③④口 |③---|
口口口口 |④---|
16
口口口口 |①---|
口①②口 |②---|
口③④口 |③---|
口口口口 |④---|
17
口口口③ |①--②|
②①口口 |--③-|
口口口口 |----|
口口口口 |----|
18
口口口⑤ |①-②-|
②②③③ |③-④-|
④④口⑦ |⑤-⑥-|
⑥⑧①① |⑦-⑧-|
19
⑥⑥⑤口 |①-②-|
②②③③ |③-④-|
④④口⑦ |⑤-⑥-|
⑧口①① |⑦-⑧-|
20
口⑥口③ |①-②-|
④②口⑤ |③-④-|
④口⑦口 |⑤-⑥-|
⑧口①① |⑦-⑧-|
21
④⑧⑦口 |①-②-|
口口口口 |③-④-|
⑤②⑥③ |⑤-⑥-|
口口口① |⑦-⑧-|
22
口口口⑤ |①-②-|
②②③③ |③-④-|
④④口⑦ |⑤-⑥-|
⑥⑧①① |⑦-⑧-|
23
⑥⑥⑤口 |①-②-|
②②③③ |③-④-|
④④⑦⑧ |⑤-⑥-|
口口①① |⑦-⑧-|
24
口⑥口③ |①-②-|
④②口⑤ |③-④-|
④口⑦口 |⑤-⑥-|
⑧口①① |⑦-⑧-|
25
②⑥③⑤ |①-②-|
口口口口 |③-④-|
④口口⑦ |⑤-⑥-|
口⑧①口 |⑦-⑧-|
26
口口口⑤ |①-②-|
②②③③ |③-④-|
④④口⑦ |⑤-⑥-|
⑥⑧①① |⑦-⑧-|
27
⑥⑥⑤口 |①-②-|
②②③③ |③-④-|
④④口⑦ |⑤-⑥-|
⑧口①① |⑦-⑧-|
28
口⑥口③ |①-②-|
④②口⑤ |③-④-|
④口⑦口 |⑤-⑥-|
⑧口①① |⑦-⑧-|
29
④⑧⑦口 |①-②-|
口口口口 |③-④-|
⑤②⑥③ |⑤-⑥-|
口口口① |⑦-⑧-|
30
口口口⑤ |①-②-|
②②③③ |③-④-|
④④口⑦ |⑤-⑥-|
⑥⑧①① |⑦-⑧-|
31
⑥⑥⑤口 |①-②-|
②②③③ |③-④-|
④④⑦⑧ |⑤-⑥-|
口口①① |⑦-⑧-|
32
口⑥口③ |①-②-|
④②口⑤ |③-④-|
④口⑦口 |⑤-⑥-|
⑧口①① |⑦-⑧-|
33
③口②口 |①--②|
⑤①口④ |--③-|
④②口⑤ |-④--|
口口①③ |⑤---|

BPM: 160
34
口口口口 |①---|
②①①② |----|
口②②口 |②---|
②①①② |----|

BPM: 140
35
口口口口 |①---|
口①①口 |----|
①口口①
口①①口

BPM: 120
口口口口
②口口②
口②②口 |②---|
②口口② |----|

BPM: 90
36
口②②口 |①-②-|
③①①⑤ |③④⑤⑥|
①④⑥①
口①①口

⑨口口⑨
口⑦⑦口
⑩口口⑪ |-⑦-⑧|
⑧口口⑧ |⑨-⑩⑪|

BPM: 95-120
37
⑨②②⑨ |①-②-|
③⑦⑦⑤ |③④⑤⑥|
⑩④⑥⑪ |-⑦-⑧|
⑧①①⑧ |⑨-⑩⑪|

BPM: 130-140
38
⑨②②⑨ |①-②-|
③⑦⑦⑤ |③④⑤⑥|
⑩④⑥⑪ |-⑦-⑧|
⑧①①⑧ |⑨-⑩⑪|

BPM: 150-170
39
⑨②②⑨ |①-②-|
③⑦⑦⑤ |③④⑤⑥|
⑩④⑥⑪ |-⑦-⑧|
⑧①①⑧ |⑨-⑩⑪|

BPM: 180-210
40
⑨②②⑨ |①-②-|
③⑦⑦⑤ |③④⑤⑥|
⑩④⑥⑪ |-⑦-⑧|
⑧①①⑧ |⑨-⑩⑪|

BPM: 210-240
41
⑨②②⑨ |①-②-|
③⑦⑦⑤ |③④⑤⑥|
⑩④⑥⑪ |-⑦-⑧|
⑧①①⑧ |⑨-⑩⑪|

BPM: 250
42
口③③口 |①---|
②口口④ |②---|
口口口口 |③---|
口①①口 |④---|

BPM: 270
43
口口口口 |①---|
口③③口 |②---|
口①①口 |③---|
②口口④ |④---|

BPM: 300
44
④③②① |①-②-|
⑤口口① |③-④-|
⑥口口口 |⑤-⑥-|
⑦⑧口口 |⑦-⑧-|
45
⑧⑦⑥⑤ |①-②-|
口口口④ |③-④-|
口口口③ |⑤-⑥-|
口口①② |⑦-⑧-|
46
口口口口 |①-②-|
①口口⑧ |③-④-|
②口口⑦ |⑤-⑥-|
③④⑤⑥ |⑦-⑧-|
47
④③②① |①-②-|
⑤口口口 |③-④-|
⑥口口口 |⑤-⑥-|
⑦⑧口口 |⑦-⑧-|
48
口口口口 |①-②-|
口⑤口④ |③-④-|
口口⑤③ |⑤---|
口口①② |----|

BPM: 195
49
③口②① |①--②|
口口口口 |--③-|
②①口口
口口口③

口口口口
④⑤⑥口
口⑥⑤④ |-④--|
口口口口 |⑤-⑥-|
50
口口④② |①--②|
口⑥⑧口 |--③-|
口⑤⑦口 |-④--|
①③口口 |⑤⑥⑦⑧|
51
③口口② |①--②|
口⑤⑦口 |--③-|
口⑥⑧口 |-④--|
①口口④ |⑤⑥⑦⑧|
52
口口口④ |①--②|
③口口口 |--③-|
⑥⑦⑧② |-④-⑤|
①口口⑤ |⑥⑦⑧-|
53
③口口口 |①--②|
⑤口口② |--③-|
口⑤⑥④ |-④--|
①口口⑥ |⑤-⑥-|
54
口口④② |①--②|
口⑥⑧口 |--③-|
口⑤⑦口 |-④--|
①③口口 |⑤⑥⑦⑧|
55
③口口② |①--②|
口⑤⑦口 |--③-|
口⑥⑧口 |-④--|
①口口④ |⑤⑥⑦⑧|
56
⑤③口④ |①--②|
口口⑥口 |--③-|
⑦口口口 |-④--|
①口②口 |⑤-⑥⑦|
57
口③口口 |①--②|
口口口口 |--③-|
口②口口
口口口①

⑤口口口
口⑤口口
口口⑥④ |-④--|
口口口⑥ |⑤-⑥-|
58
口口④② |①--②|
口⑥⑧口 |--③-|
口⑤⑦口 |-④--|
①③口口 |⑤⑥⑦⑧|
59
③口口② |①--②|
口⑤⑦口 |--③-|
口⑥⑧口 |-④--|
①口口④ |⑤⑥⑦⑧|
60
口口口④ |①--②|
③口口口 |--③-|
⑥⑦⑧② |-④-⑤|
①口口⑤ |⑥⑦⑧-|
61
③口口口 |①--②|
⑤口口② |--③-|
口⑤⑥④ |-④--|
①口口⑥ |⑤-⑥-|
62
口口④② |①--②|
口⑥⑧口 |--③-|
口⑤⑦口 |-④--|
①③口口 |⑤⑥⑦⑧|
63
③口口② |①--②|
口⑤⑦口 |--③-|
口⑥⑧口 |-④--|
①口口④ |⑤⑥⑦⑧|
64
⑤③口④ |①--②|
口口⑥口 |--③-|
⑦口口口 |-④--|
①口②口 |⑤-⑥⑦|
65
口③⑤口 |①--②|
⑤⑤⑤⑤ |--③-|
口②⑤④ |-④--|
口口⑤① |⑤---|
66
②口口④ |①---|
口口⑥⑦ |②-③-|
③口口⑤ |④-⑤-|
口口口① |⑥-⑦-|
67
口口④口 |①-②-|
①②⑧口 |③-④-|
⑤⑥③口 |⑤-⑥-|
口口⑦口 |⑦-⑧-|
68
口口⑤④ |①-②-|
②⑥口口 |③-④-|
口口⑦③ |⑤-⑥-|
①⑧口口 |⑦-⑧-|
69
口口⑥口 |①-②-|
口⑤口口 |③-④-|
③口⑧④ |⑤-⑥-|
①⑦口② |⑦-⑧-|
70
②⑩⑧④ |①②③④|
⑥口口⑫ |-⑤⑥-|
口⑤⑪口 |⑦⑧⑨⑩|
①⑨⑦③ |-⑪⑫-|
71
③⑧⑥④ |①-②-|
口口口⑩ |③-④-|
口口⑨口 |⑤⑥⑦⑧|
①⑦⑤② |-⑨⑩-|
72
②口④③ |①--②|
③⑥口口 |--③-|
①⑤⑥① |-④--|
口④⑤② |⑤-⑥-|
73
①④口口 |---①|
③口⑤① |--②-|
②④口③ |-③--|
口口⑤② |④-⑤-|
74
口口口口 |----|
口口口口 |----|
口口口口 |----|
口口口口 |----|
75
口口⑥③ |①-②③|
②⑧⑩④ |④-⑤-|
⑤⑦⑨口 |-⑥--|
①⑤①口 |⑦⑧⑨⑩|
76
⑤⑦⑦③ |①-②③|
②⑧⑩④ |④-⑤-|
⑤⑨⑪口 |-⑥⑦-|
①口①⑥ |⑧⑨⑩⑪|
77
③口口④ |①--②|
③口口口 |--③-|
⑥⑦⑧② |-④-⑤|
①口①⑤ |⑥⑦⑧-|
78
③口口口 |①--②|
⑤口口② |--③-|
口⑤⑥④ |-④--|
①口口⑥ |⑤-⑥-|
79
⑤口⑥③ |①-②③|
口⑧⑩④ |④-⑤-|
②⑦⑨口 |-⑥--|
①⑤①口 |⑦⑧⑨⑩|
80
⑤口口③ |①-②③|
②⑧⑩④ |④-⑤-|
⑦⑨⑪⑦ |-⑥⑦-|
①⑤①⑥ |⑧⑨⑩⑪|
81
⑤③①④ |①--②|
③口⑥③ |--③-|
⑦口口口 |-④--|
①口②口 |⑤-⑥⑦|
82
口③②口 |①--②|
④⑤⑥③ |--③-|
⑥②④⑤ |-④--|
①口口① |⑤-⑥-|
83
②口⑤② |①---|
④⑦⑨口 |②-③-|
口⑥⑧⑥ |④⑤--|
①③口① |⑥⑦⑧⑨|
84
④口口② |①--②|
⑤⑦⑨③ |③-④-|
口⑧⑩口 |⑤⑥--|
①口⑦⑥ |⑦⑧⑨⑩|
85
口口口⑥ |①--②|
④口口③ |③-④-|
⑧⑨⑩② |⑤⑥-⑦|
①⑤⑧⑦ |⑧⑨⑩-|
86
④口口口 |①--②|
⑦口③② |③-④-|
口⑦⑧⑥ |⑤⑥--|
①⑤⑦⑧ |⑦-⑧-|
87
口口⑥② |①--②|
口⑧⑩③ |③-④-|
⑤⑦⑨⑦ |⑤⑥--|
①④口口 |⑦⑧⑨⑩|
88
④口口② |①--②|
⑤⑦⑨③ |③-④-|
口⑧⑩⑦ |⑤⑥--|
①口口⑥ |⑦⑧⑨⑩|
89
⑦④⑦⑥ |①--②|
⑤口⑧③ |③-④-|
⑨口口口 |⑤⑥--|
①口②口 |⑦-⑧⑨|
90
口④⑥口 |①-②③|
⑥⑥⑥⑥ |--④-|
口③⑥⑤ |-⑤--|
④②⑥① |⑥---|
91
②口口口 |①---|
口口口口 |②-③-|
③③口口
口①口①

口口口④
口口⑥⑦
口口口⑤ |④-⑤-|
口口⑤⑦ |⑥-⑦-|
92
口⑥④口 |①-②-|
①②⑧口 |③-④-|
⑤⑥③口 |⑤-⑥-|
口②⑦口 |⑦-⑧-|
93
口⑥⑤④ |①-②-|
②⑥口④ |③-④-|
口⑧⑦③ |⑤-⑥-|
①⑧口① |⑦-⑧-|
94
口口⑥口 |①-②-|
口⑤②⑥ |③-④-|
③口⑧④ |⑤-⑥-|
①⑦口② |⑦-⑧-|
95
②⑩⑧④ |①②③④|
⑥⑨口⑫ |-⑤⑥-|
⑥⑤⑪⑫ |⑦⑧⑨⑩|
①⑨⑦③ |-⑪⑫-|
96
③⑧⑥④ |①-②-|
口⑦②⑩ |③-④-|
口⑨⑩口 |⑤⑥⑦⑧|
①⑦⑤② |-⑨⑩-|
97
②口④③ |①--②|
③⑦⑤口 |--③-|
①⑥⑦① |-④⑤-|
口④⑥② |⑥-⑦-|
98
②⑥口⑤ |--①②|
④口⑦② |--③-|
③⑥口④ |-④⑤-|
①口⑦③ |⑥-⑦-|
99
口口①口 |①---|
口①口口 |----|
口口①口 |----|
①①口口 |----|


不确定度: 0

タグ:

+ タグ編集
  • タグ:

このサイトはreCAPTCHAによって保護されており、Googleの プライバシーポリシー利用規約 が適用されます。

最終更新:2012年11月11日 19:35