新たな幕開け
新井大樹

EXTREME

Level: 10
BPM: 150
Notes: 941

1
口口口口 |----|
口口口口 |----|
口口②③ |----|
①口口口 |①-②③|
2
①口口② |①②--|
①③③口 |--③-|
口口口口
口口口口

口⑤⑥口
⑤口口⑥
口④④口 |--④-|
口口口口 |⑤-⑥-|
3
口⑧⑦口 |①②③④|
⑧⑤⑤⑦ |--⑤-|
①⑥⑥④ |--⑥-|
口②③口 |⑦-⑧-|
4
口⑦⑧口 |①②③④|
⑦⑤⑤⑧ |--⑤-|
④⑥⑥① |--⑥-|
口③②口 |⑦-⑧-|
5
①口口② |①②--|
口③④口 |--③④|
①口口②
口③④口

口⑤口口
口口口⑥
口⑤口⑥ |⑤---|
口口口口 |⑥---|
6
口⑤⑥口 |①②--|
⑤③③⑥ |--③-|
①④④口 |--④-|
口②口口 |⑤-⑥-|
7
口⑧⑦口 |①②③④|
⑧⑤⑤⑦ |--⑤-|
①⑥⑥④ |--⑥-|
口②③口 |⑦-⑧-|
8
口⑦⑧口 |①②③④|
⑦⑤⑤⑧ |--⑤-|
④⑥⑥① |--⑥-|
口③②口 |⑦-⑧-|
9
①⑤口② |①②--|
口③④⑥ |--③④|
①口口② |⑤---|
⑤③④⑥ |⑥---|
10
①⑥⑨③ |①-②-|
⑧⑥④⑨ |③④-⑤|
①⑧口⑦ |⑥-⑦-|
⑤②口⑦ |⑧⑨--|
11
①⑥⑨③ |①-②-|
⑧⑥④⑨ |③④-⑤|
口⑧①⑦ |⑥-⑦-|
⑤②口⑦ |⑧⑨--|
12
①⑥⑨③ |①-②-|
⑧⑥④⑨ |③④-⑤|
口⑧①⑦ |⑥-⑦-|
⑤②口⑦ |⑧⑨--|
13
①⑥⑨③ |①-②-|
⑧⑥④⑨ |③④-⑤|
口⑧①⑦ |⑥-⑦-|
⑤②口⑦ |⑧⑨--|
14
①⑦⑩④ |①②③-|
⑨⑦⑤⑩ |④⑤-⑥|
③⑨②⑧ |⑦-⑧-|
⑥①口⑧ |⑨⑩--|
15
①⑦⑩④ |①②③-|
⑨⑦⑤⑩ |④⑤-⑥|
③⑨②⑧ |⑦-⑧-|
⑥①口⑧ |⑨⑩--|
16
①⑦⑩④ |①②③-|
⑨⑦⑤⑩ |④⑤-⑥|
③⑨②⑧ |⑦-⑧-|
⑥①口⑧ |⑨⑩--|
17
①⑦⑩④ |①②③-|
⑨⑦⑤⑩ |④⑤-⑥|
③⑨②⑧ |⑦-⑧-|
⑥①口⑧ |⑨⑩--|
18
①口口② |①-②-|
口口口口 |③-④-|
①口口口
③①①④

口⑤⑥⑦
口口口⑧
口口⑩⑨ |----|
口口口口 |⑤--⑥⑦⑧⑨⑩|
19
口口口口 |①②③-----|
口②③口 |----|
口①⑥口 |--④-|
④⑤口口 |⑤-⑥-|
20
③③①③ |①---|
口①口口 |②-③-|
②②口口
口口口①

口口⑤口
⑤口口⑤
口口④④ |--④-|
口口口口 |--⑤-|
21
口口口口 |--①-|
口①①口 |②-③-|
②②⑥口 |--④-|
④⑤③③ |⑤-⑥-|
22
③口①③ |①---|
⑤①③① |②-③-|
②②④④ |--④-|
⑤口⑤口 |--⑤-|
23
口口②口 |--①-|
口①①② |②-③-|
③③⑥口 |--④-|
④⑤口口 |⑤-⑥-|
24
③口①③ |①---|
口③口① |②-③-|
②②口口
口口①口

口口口口
⑤口口⑤
口口④④ |--④-|
⑤口口口 |--⑤-|
25
口口口口 |--①-|
口①①口 |②-③-|
②②⑥口 |--④-|
④⑤③③ |⑤-⑥-|
26
口①②④ |①-②-|
①③④② |③-④-|
③①口④
口口口口

口⑥⑥口
⑥口口⑥
口口口口 |--⑤-|
口⑤⑤口 |--⑥-|
27
①口口② |①②③④|
口③④口 |⑤⑥⑦⑧|
⑤口口⑥
⑦口口⑧

⑩口口⑩
口口口口
口⑨⑨口 |⑨---|
口口口口 |⑩---|
28
口口①口 |①②③④|
口②③口 |⑤-⑥⑦|
口④口⑥
⑤口⑦口

口口⑪口
口⑩口口
口口⑨口 |⑧-⑨-|
口⑧口口 |⑩-⑪-|
29
⑥②口⑥ |--①-|
①口口② |②-③-|
③④口⑤ |④-⑤-|
④③①⑦ |⑥-⑦-|
30
口口①口 |①②③④|
口②③口 |⑤-⑥⑦|
口④口⑥
⑤口⑦口

口口⑪口
口⑩口口
口口⑨口 |⑧-⑨-|
口⑧口口 |⑩-⑪-|
31
口②口② |--①-|
③口③口 |②-③-|
口①口④ |----|
口口④口 |④---|
32
口口②② |①---|
③③口口 |②-③-|
口口口口
①①口口

口口口口
口口口口
口口口口 |--④-|
⑤⑤④④ |--⑤-|
33
②②口口 |--①-|
③③①① |②-③-|
口口口口
口口口口

口口口口
口口⑥口
口⑤口口 |--④-|
④口口口 |⑤-⑥-|
34
⑥①④⑥ |①-②-|
②③口④ |③-④-|
⑤⑥⑥口 |--⑤-|
口⑤口口 |--⑥-|
35
口口口口 |①---|
③①①③ |②---|
口口⑥口 |③-④-|
④⑤②② |⑤-⑥-|
36
③③①③ |①---|
口①口口 |②-③-|
②②口口
口口口①

口口⑤口
⑤口口⑤
口口④④ |--④-|
口口口口 |--⑤-|
37
口口口口 |--①-|
口①①口 |②-③-|
②②⑥口 |--④-|
④⑤③③ |⑤-⑥-|
38
口③①③ |①---|
⑤①③① |②-③-|
②②④④ |--④-|
⑤口⑤口 |--⑤-|
39
口口②口 |--①-|
口①①② |②-③-|
③③⑥口 |--④-|
④⑤口口 |⑤-⑥-|
40
③③①③ |①---|
口①口口 |②-③-|
②②口口
口口口①

口口⑤口
⑤口口⑤
口口④④ |--④-|
口口口口 |--⑤-|
41
口口口口 |--①-|
口①①口 |②-③-|
②②⑥口 |--④-|
④⑤③③ |⑤-⑥-|
42
口口②④ |①-②-|
①③④② |③-④-|
③①口口
口口口口

口⑥⑥口
⑥口口⑥
口口口口 |--⑤-|
口⑤⑤口 |--⑥-|
43
①口口② |①②③④|
口③④口 |⑤⑥⑦⑧|
⑤口口⑥
口⑦⑧口

⑩口口⑩
⑩口口⑩
口⑨⑨口 |⑨---|
⑨口口⑨ |⑩---|
44
口口①口 |①②③④|
口②③口 |⑤-⑥⑦|
口④口⑥
⑤口⑦口

口口⑪口
口⑩口口
口口⑨口 |⑧-⑨-|
口⑧口口 |⑩-⑪-|
45
⑥②口⑥ |--①-|
①口口② |②-③-|
③④口⑤ |④-⑤-|
④③①⑦ |⑥-⑦-|
46
口口①口 |①②③④|
口②③口 |⑤-⑥⑦|
口④口⑥
⑤口⑦口

口口⑪口
口⑩口口
口口⑨口 |⑧-⑨-|
口⑧口口 |⑩-⑪-|
47
口②口② |--①-|
③口③口 |②-③-|
④①口⑤ |④-⑤-|
口⑦口⑥ |⑥⑦--|
48
口口②② |①---|
③③口口 |②-③-|
口①口口
①口口口

口口口口
口口口口
口口口口 |--④-|
⑤⑤④④ |--⑤-|
49
②②口口 |--①-|
③③①① |②-③-|
口口口口
口口口口

口口口口
口口⑦口
口⑥口口 |④-⑤-|
⑤口④⑤ |⑥-⑦-|
50
⑥①④⑥ |①-②-|
②③口④ |③-④-|
⑤⑥⑥口 |--⑤-|
口⑤口口 |--⑥-|
51
口⑨⑥⑩ |①②③④|
⑤①④⑧ |⑤-⑥⑦-⑧--|
⑨口⑩② |⑨---|
③⑦口口 |⑩---|
52
口口①口 |①②③④|
口②③口 |⑤-⑥⑦|
口④口⑥
⑤口⑦口

⑩口口⑧
口⑫口口
⑨⑭⑪口 |⑧⑨⑩⑪|
口口口⑬ |⑫-⑬⑭|
53
⑥③①⑥ |①-②-|
②口口③ |③-④-|
④口⑤⑤ |⑤---|
①④②口 |⑥---|
54
口口①口 |①②③④|
口②③口 |⑤-⑥⑦|
口④口⑥
⑤口⑦口

⑩口口⑧
口⑫口口
⑨⑭⑪口 |⑧⑨⑩⑪|
口口口⑬ |⑫-⑬⑭|
55
④②②④ |①-②-|
①⑥⑤① |③-④-|
③⑦⑧③ |--⑤⑥|
口口⑩⑨ |⑦⑧⑨⑩|
56
口口③③ |①-②-|
④④口口 |③-④-|
②口口②
口①口口

口口口口
口口口口
口口口口 |--⑤-|
⑥⑥⑤⑤ |--⑥-|
57
②②口口 |--①-|
③③①① |②-③-|
口口口口
口口口口

口口口口
口口⑦口
口⑥⑥⑦ |--④⑤|
④④口⑤ |⑥-⑦-|
58
口①④口 |①-②-|
②③口④ |③-④-|
⑤口⑥口 |--⑤-|
口⑤口⑥ |--⑥-|
59
⑤口⑥口 |①②③④|
口①口⑧ |⑤⑥⑦⑧|
口口口②
③⑦④口

口⑪口⑩
⑮⑬⑫口
⑨口口⑭ |⑨⑩⑪⑫|
口口口口 |⑬⑭⑮-|
60
口口口口 |①②③④|
口⑧⑦口 |⑤⑥⑦⑧|
⑥⑤④口
口③②①

⑨⑩⑪⑫
口口口口
口口口口 |⑨⑩⑪⑫|
⑬⑭⑮⑯ |⑬⑭⑮⑯|
61
口口口口 |①②③④|
⑤⑥⑦⑧ |⑤⑥⑦⑧|
④③②①
口口口口

⑨⑩⑪⑫
口口口口
⑯⑮⑭⑬ |⑨⑩⑪⑫|
口口口口 |⑬⑭⑮⑯|
62
⑨⑩⑪⑫ |①②③④|
⑧⑦⑥⑤ |⑤⑥⑦⑧|
⑬⑭⑮⑯ |⑨⑩⑪⑫|
①②③④ |⑬⑭⑮⑯|
63
口口口口 |①②③④|
④③②① |⑤⑥⑦⑧|
口口口口
⑧⑦⑥⑤

口口口口
⑯⑮⑭⑬
⑨⑩⑪⑫ |⑨⑩⑪⑫|
口口口口 |⑬⑭⑮⑯|
64
①②③④ |①②③④|
口口口口 |⑤⑥⑦⑧|
⑤⑥⑦⑧
口口口口

⑬⑭⑮⑯
⑫⑪⑩⑨
口口口口 |⑨⑩⑪⑫|
口口口口 |⑬⑭⑮⑯|
65
⑯⑮⑭⑬ |①②③④|
⑨⑩⑪⑫ |⑤⑥⑦⑧|
①②③④ |⑨⑩⑪⑫|
⑧⑦⑥⑤ |⑬⑭⑮⑯|
66
口口口口 |①②③④|
口口口口 |⑤⑥⑦⑧|
①②③④
⑧⑦⑥⑤

口⑪口口
⑩⑫⑨口
⑬⑮⑭口 |⑨⑩⑪⑫|
口口口口 |⑬⑭⑮-|
67
⑦⑥②① |①②③④|
⑬⑧⑤③ |⑤⑥⑦⑧|
⑭⑫⑨④ |⑨⑩⑪⑫|
⑯⑮⑪⑩ |⑬⑭⑮⑯|
68
⑤①⑩④ |①②③④|
⑪③⑯⑥ |⑤⑥⑦⑧|
⑨⑦⑫② |⑨⑩⑪⑫|
⑮⑬⑭⑧ |⑬⑭⑮⑯|
69
⑤①⑩④ |①②③④|
⑪③口⑥ |⑤⑥⑦⑧|
⑨⑦⑫② |⑨⑩⑪⑫|
⑮⑬⑭⑧ |⑬⑭⑮-|
70
⑤①⑩④ |①②③④|
⑪③⑯⑥ |⑤⑥⑦⑧|
⑨⑦⑫② |⑨⑩⑪⑫|
⑮⑬⑭⑧ |⑬⑭⑮⑯|
71
①①口④ |①-②-|
口③⑥④ |-③--|
⑤③⑥② |④--⑤|
⑤口口② |--⑥-|
72
⑤①⑩④ |①②③④|
⑪③⑯⑥ |⑤⑥⑦⑧|
⑨⑦⑫② |⑨⑩⑪⑫|
⑮⑬⑭⑧ |⑬⑭⑮⑯|
73
⑤①⑩④ |①②③④|
⑪③口⑥ |⑤⑥⑦⑧|
⑨⑦⑫② |⑨⑩⑪⑫|
⑮⑬⑭⑧ |⑬⑭⑮-|
74
⑤①口④ |①②③④|
口③口⑥ |⑤⑥⑦⑧|
口⑦口②
口口口⑧

口口⑩口
⑪口口口
⑨口⑫⑯ |⑨⑩⑪⑫|
⑮⑬⑭口 |⑬⑭⑮⑯|
75
③①口④ |①-②-|
③①②④ |-③--|
⑥②口⑤ |④--⑤|
⑥口口⑤ |--⑥-|
76
口①①口 |①---|
口①①口 |----|
口①①口 |----|
口口口口 |----|

不确定度: 0

タグ:

+ タグ編集
  • タグ:

このサイトはreCAPTCHAによって保護されており、Googleの プライバシーポリシー利用規約 が適用されます。

最終更新:2013年01月19日 12:46