squall
猫叉Master+

ADVANCED

Level: 7
BPM: 190
Notes: 529

1
口口口口 |----|
口口口口 |----|
口口口口 |----|
口口口口 |----|
2
口口口④ |①---②-|
③⑤口口 |--③---|
口口⑥② |④---⑤-|
口①口口 |--⑥---|
3
口口②口 |①---②-|
③口口口 |--③---|
口①口④ |④---⑤-|
⑤口⑥口 |--⑥---|
4
①①口口 |①---②-|
③口④口 |--③---|
⑤口②口 |④---⑤-|
口口⑥口 |--⑥---|
5
口口口② |①---②-|
⑤③口口 |--③---|
口①④⑥ |④---⑤-|
口口口口 |--⑥---|
6
③③④④ |①---②-|
⑤⑤②② |--③---|
口口口口 |④---⑤-|
①①⑥⑥ |--⑥---|
7
③③④④ |①---②-|
⑤⑤②② |--③---|
口口口口 |④---⑤-|
①①⑥⑥ |--⑥---|
8
③③口口 |①---②-|
口口②② |--③---|
①①④④ |④---⑤-|
⑤⑤⑥⑥ |--⑥---|
9
③③②② |①---②-|
①①④④ |--③---|
口口口口 |④---⑤-|
⑤⑤⑥⑥ |--⑥---|
10
②口②口 |①---②-|
④③④③ |--③---|
①⑤①⑤ |④---⑤-|
⑥口⑥口 |--⑥---|
11
口口③③ |①---|
口②口口 |--②-|
口口口口 |----|
口口口① |③---|
12
口①口口 |----|
口口口② |----|
口口④口 |①-②-|
口③口口 |③-④-|
13
③③口口 |①---|
口口②口 |--②-|
口口口口 |----|
①口口口 |③---|
14
口口①口 |----|
②口口口 |----|
口口③口 |①-②-|
口④口口 |③-④-|
15
口口③③ |①---|
口②口口 |--②-|
口口口口 |----|
口口①① |③---|
16
口①口口 |----|
口口②口 |----|
口③口口 |①-②-|
口口④口 |③-④-|
17
口口口口 |①---|
口口口口 |--②-|
①口口② |----|
①③③② |③---|
18
④④口口 |----①-|
①口口① |--②---|
②口口② |③---|
③口口③ |④---|
19
口口口口 |----|
②口口① |①---|
口口口③ |②---|
口口口口 |③---|
20
口④③口 |①---|
口⑥⑤口 |②---|
①口口口 |③-④-|
口②②口 |⑤-⑥-|
21
口口口口 |----|
②口口① |①---|
口口口③ |②---|
口口口口 |③---|
22
口⑤④口 |①---|
口⑦⑥口 |②-③-|
①③口口 |④-⑤-|
口口②口 |⑥-⑦-|
23
口口口① |①---|
口口口① |②---|
③口口② |③---|
口口口④ |④---|
24
口口口口 |①---|
口⑥③口 |②---|
口④⑤口 |③-④-|
①②②口 |⑤-⑥-|
25
②口⑦① |①-②-|
④口口③ |③-④-|
⑥口口⑤ |⑤-⑥-|
口口口口 |⑦---|
26
⑥口口⑦ |--①-|
口口①口 |②-③-|
口②口口 |④-⑤-|
④口③⑤ |⑥-⑦-|
27
口①②口 |①---|
③③口④ |--②---|
口口口口 |③---|
口口口口 |--④---|
28
口口口口 |①---|
口口口口 |--②---|
①①口②
口口口口

口口口口
口口④口
口⑤口口 |③---|
③③口口 |--④⑤|
29
口口口口 |①---|
口口口口 |--②-|
口口口② |③---|
③③①口 |----|
30
口口口口 |----|
口口②口 |----|
口③口口 |①---|
①口口① |--②③|
31
口口口口 |①---|
口口口口 |--②-|
口口口② |③---|
③③①口 |----|
32
口口口口 |----|
口④③③ |①-②-|
②②⑤口 |③---|
口口①① |--④-⑤-|
33
口口口口 |①---|
口口②口 |--②-③-|
口③口口 |④---|
口①④口 |----|
34
口口口口 |----|
口口口口 |----|
①口口口 |----|
口口口口 |①---|
35
口②①口 |①---|
④口③③ |--②---|
口口口口 |③---|
口口口口 |--④---|
36
口口口口 |①---|
口口口口 |--②---|
②口①①
口口口口

口口口口
口④口口
口口⑤口 |③---|
口口③③ |--④-⑤-|
37
口口口口 |①---|
②口③口 |--②-③-|
口口口口 |④---|
④①口口 |----|
38
口口口口 |----|
口②②口 |----|
口口口口 |①---|
口①①口 |②---|
39
①口口① |①---|
②口口口 |--②---|
④口③③ |③---|
口口口口 |--④---|
40
口④④口 |①---|
口口口口 |--②---|
口口③③ |③---|
②口①① |④---|
41
③口口口 |①-②-|
口③②② |③---|
①①口口 |----|
口口口口 |----|
42
口口口口 |----|
口口口口 |----|
口口口口 |----|
口口口口 |----|
43
口口口口 |①---|
④①①③ |--②-|
口②②口 |----|
口口口口 |③-④-|
44
口口口口 |①-②-|
口口口口 |③-④-|
②口口① |⑤---|
④口⑤③ |----|
45
口口口口 |①---|
口①①口 |--②-|
口②②口 |----|
口口口口 |----|
46
⑧口口口 |①-②-|
②口口① |③-④-|
④口口③ |⑤-⑥-|
⑥口⑦⑤ |⑦-⑧-|
47
口口口口 |①---|
④①①③ |--②-|
口②②口 |----|
口口口口 |③-④-|
48
口口口口 |①-②-|
口口口口 |③-④-|
②口口① |⑤---|
④口⑤③ |----|
49
口④③口 |①---|
口①①口 |--②-|
口②②口 |----|
口口口口 |③-④-|
50
⑧口口口 |①-②-|
②口口① |③-④-|
④口口③ |⑤-⑥-|
⑥口⑦⑤ |⑦-⑧-|
51
口口口口 |①---|
口①①口 |--②-|
口②②口 |----|
口口口口 |----|
52
④口口① |----|
口口口口 |----|
口口口口 |①-②-|
②口口③ |③-④-|
53
口口口口 |①---|
口①①口 |--②-|
口②②口 |----|
口口口口 |----|
54
口口口口 |----|
②口口① |----|
④口口③ |①-②-|
口口口口 |③-④-|
55
口口口口 |①---|
口①①口 |--②-|
口②②口 |----|
口口口口 |----|
56
口口口① |----|
口口口口 |----|
口口口口 |----|
口口口口 |①---|
57
口口口口 |①---|
口①①口 |--②-|
口②②口 |----|
口口口口 |----|
58
口口口口 |----|
②口口② |①---|
口口口口 |②---|
③①①③ |③---|
59
②口②口 |①---②-|
④③④③ |--③---|
①⑤①⑤ |④---⑤-|
⑥口⑥口 |--⑥---|
60
口口③③ |①---|
口②口口 |--②-|
口口口口 |----|
口口口① |③---|
61
口①口口 |----|
口口口② |----|
口口④口 |①-②-|
口③口口 |③-④-|
62
③③口口 |①---|
口口②口 |--②-|
口口口口 |----|
①口口口 |③---|
63
口口①口 |----|
②口口口 |----|
口口③口 |①-②-|
口④口口 |③-④-|
64
口口③③ |①---|
口②口口 |--②-|
口口口口 |----|
口口①① |③---|
65
口①口口 |----|
口口②口 |----|
口③口口 |①-②-|
口口④口 |③-④-|
66
口口口口 |①---|
口口口口 |--②-|
①口口② |----|
①③③② |③---|
67
①③④② |①---|
口⑤⑥口 |②---|
口⑦⑧口 |③④⑤⑥|
口⑨⑩口 |⑦⑧⑨⑩|
68
⑤⑤口口 |①---|
③口口口 |②-③-|
③口口④ |--④-|
①口口② |⑤---|
69
口口口② |----|
③口口口 |--①-|
口⑤④口 |②-③-|
口①口口 |④-⑤-|
70
口口⑤⑤ |①---|
口口口③ |②-③-|
④口口③ |--④-|
②口①① |⑤---|
71
②口③口 |----|
口④①口 |--①-|
口口⑤口 |②-③-|
口口口口 |④-⑤-|
72
⑤⑤口口 |①---|
③口口口 |②-③-|
③口口④ |--④-|
①①口② |⑤---|
73
口口口口 |----|
口③口② |--①-|
口⑤④口 |②-③-|
①口口口 |④-⑤-|
74
口口口③ |①---|
口口口③ |②-③-|
②口⑤⑤ |--④-|
④口①① |⑤---|
75
口②①口 |----|
口口③口 |--①-|
口④口口 |②-③-|
口口⑤口 |④-⑤-|
76
⑤⑤口口 |①---|
③口口口 |②-③-|
③口口④ |--④-|
①口口② |⑤---|
77
口③②口 |----|
①口④口 |--①-|
口⑤口口 |②-③-|
口口口口 |④-⑤-|
78
口口⑤⑤ |①---|
口口口③ |②-③-|
④口口③ |--④-|
②口①① |⑤---|
79
口②③口 |----|
口④①口 |--①-|
口口⑤口 |②-③-|
口口口口 |④-⑤-|
80
⑤⑤口口 |①---|
③口口口 |②-③-|
③口口④ |--④-|
①①口② |⑤---|
81
口③②口 |----|
①口④口 |--①-|
口⑤口口 |②-③-|
口口口口 |④-⑤-|
82
口口⑤⑤ |①---|
口口口③ |②-③-|
④口口③ |--④-|
②口①① |⑤---|
83
口①口口 |----|
口口②口 |----|
口③口口 |①-②-|
口口④口 |③-④-|
84
口口口④ |①---②-|
③⑤口口 |--③---|
口口⑥② |④---⑤-|
口①口口 |--⑥---|
85
口口②口 |①---②-|
③口口口 |--③---|
口①口④ |④---⑤-|
⑤口⑥口 |--⑥---|
86
①①口口 |①---②-|
③口④口 |--③---|
⑤口②口 |④---⑤-|
口口⑥口 |--⑥---|
87
口口口② |①---②-|
口③口⑥ |--③---|
⑤①④口 |④---⑤-|
口口口口 |--⑥---|
88
口口口④ |①---②-|
③⑤口口 |--③---|
口口⑥② |④---⑤-|
口①口口 |--⑥---|
89
口口②口 |①---②-|
③口口口 |--③---|
口①口④ |④---⑤-|
⑤口⑥口 |--⑥---|
90
①①口口 |①---②-|
③口④口 |--③---|
⑤口②口 |④---⑤-|
口口⑥口 |--⑥---|
91
口口口② |①---②-|
⑤③口口 |--③---|
口①④⑥ |④---⑤-|
口口口口 |--⑥---|

タグ:

+ タグ編集
  • タグ:

このサイトはreCAPTCHAによって保護されており、Googleの プライバシーポリシー利用規約 が適用されます。

最終更新:2014年11月03日 23:17