POINT ZERO
猫叉Master+
EXTREME
Level: 9
BPM: 188
Notes: 693
1
口口口口 |----|
口口口口 |----|
口口口口 |----|
口口口口 |----|
2
口口口口 |----|
口口口口 |----|
口口口口 |----|
口口口口 |----|
3
①口口口 |----|
口口口口 |----|
口口口口 |----|
口口口口 |①---|
4
③口口③ |①---|
口口口① |--②-|
②①口口 |----|
口口②口 |--③-|
5
口④④口 |--①-|
口口口② |--②-|
③②口口 |--③-|
①口③① |--④-|
6
口口口口 |----|
口②口① |①---|
口口口口 |--②-|
口①口② |----|
7
⑤④③② |①---|
口口口口 |----|
口口口口 |----|
①口①口 |②③④⑤|
8
口口口④ |①---|
①口口① |②---|
口③③口 |--③-|
口②②口 |④---|
9
口口口④ |①---|
口口口口 |②---|
口③③口 |--③-|
①②②① |④---|
10
口口口④ |①---|
①口口① |②---|
口③③口 |--③-|
口②②口 |④---|
11
⑧①①⑧ |①-②-|
⑥②②口 |③-④-|
④⑥⑦③ |⑤-⑥-|
口④⑤口 |⑦-⑧-|
12
口口②④ |--①-|
口①①口 |②---|
口③③口 |--③-|
口口口口 |④---|
13
口口口④ |①---|
⑤口口⑤ |②---|
①③③① |--③-|
口②②口 |④-⑤-|
14
口口口口 |--①-|
口①②口 |②-③-|
③口口③ |----|
⑤④口⑤ |④-⑤-|
15
口口口口 |--①-|
口口①口 |--②-|
口②②口 |--③-|
口③③口 |----|
16
口④⑤口 |①-②-|
②⑥③⑦ |③-④-|
⑧口口口 |⑤-⑥-|
①口口① |⑦-⑧-|
17
口口口口 |①-②-|
③口⑥口 |③④⑤⑥|
口④②⑤
⑤①①口
口口⑧⑦
口口口⑨
口口口口 |⑦-⑧-|
口口⑩口 |⑨-⑩-|
18
②⑧口口 |①-②-|
⑥口③⑦ |③-④-|
④口口⑤ |⑤-⑥-|
口①口① |⑦-⑧-|
19
③口②② |①-②-|
口④口⑥ |③④⑤-|
⑤①①口 |--⑥-|
⑦⑦⑥口 |--⑦-|
20
口④⑤口 |①-②-|
②⑥③⑦ |③-④-|
⑧口口口 |⑤-⑥-|
口口口① |⑦-⑧-|
21
口口口口 |①-②-|
③口⑥口 |③④⑤⑥|
口④②⑤
⑤①①口
口⑧口⑦
口口口口
⑨口口口 |⑦-⑧-|
口口⑩⑩ |⑨-⑩-|
22
①口②口 |①-②③|
⑤③口口 |④-⑤-|
口口④口
口口口口
⑨口口口
口口⑥口
口⑦口口 |--⑥⑦|
口口⑧口 |⑧-⑨-|
23
⑩⑥①⑬ |--①②|
口②⑤⑦ |③-④⑤|
④⑧③⑨ |⑥⑦⑧⑨|
口⑫⑪口 |⑩⑪⑫⑬|
24
口④⑤口 |①-②-|
②⑥③⑦ |③-④-|
⑧口口口 |⑤-⑥-|
①口口① |⑦-⑧-|
25
口口口口 |①-②-|
③口⑥口 |③④⑤⑥|
口④②⑤
⑤①①口
口口⑧⑦
口口口⑨
口口口口 |⑦-⑧-|
口口⑩口 |⑨-⑩-|
26
②⑧口口 |①-②-|
⑥口③⑦ |③-④-|
④口口⑤ |⑤-⑥-|
口①口① |⑦-⑧-|
27
③口②② |①-②-|
口④口⑥ |③④⑤-|
⑤①①口 |--⑥-|
⑦⑦⑥口 |--⑦-|
28
口④⑤口 |①-②-|
②⑥③⑦ |③-④-|
⑧口口口 |⑤-⑥-|
口口口① |⑦-⑧-|
29
口口口口 |①-②-|
③口⑥口 |③④⑤⑥|
口④②⑤
⑤①①口
口⑧口⑦
口口口口
⑨口口口 |⑦-⑧-|
口口⑩⑩ |⑨-⑩-|
30
①口②口 |①-②③|
⑤③口口 |④-⑤-|
口口④口
口口口口
⑨口口口
口口⑥口
口⑦口口 |--⑥⑦|
口口⑧口 |⑧-⑨-|
31
⑩⑥①⑬ |--①②|
口②⑤⑦ |③-④⑤|
④⑧③⑨ |⑥⑦⑧⑨|
口⑫⑪口 |⑩⑪⑫⑬|
32
⑤⑤口口 |①---|
①①④口 |②-③-|
③口②④ |--④-|
③口口② |⑤---|
33
口口①③ |①-②-|
②②口① |----|
口口口口 |③---|
口口口口 |----|
34
口③口口 |①---|
①①口④ |②-③-|
⑤③口口 |--④-|
口⑤口② |⑤---|
35
②口口口 |①-②-|
口②口口 |--③④|
口口①口
③口④口
口⑤口⑥
⑦口⑧口
⑨口⑩口 |⑤⑥⑦⑧|
口⑪口⑫ |⑨⑩⑪⑫|
36
①口①口 |①-②-|
⑤③⑤③ |--③-|
口②口② |④---|
④⑥④⑥ |⑤-⑥-|
37
口口口② |--①-|
口口口口 |----|
口①①口 |②---|
口口口口 |----|
38
口口口口 |①---|
③⑤④口 |②-③-|
口③①口 |--④-|
⑤①口② |⑤---|
39
口③①口 |①-②-|
口口口④ |----|
②④口③ |③---|
口②口口 |④---|
40
⑤⑤口口 |①---|
①①④口 |②-③-|
③口②④ |--④-|
③口口② |⑤---|
41
口口①③ |①-②-|
②②口① |----|
口口口口 |③---|
口口口口 |----|
42
口③口口 |①---|
①①口④ |②-③-|
⑤③口口 |--④-|
口⑤口② |⑤---|
43
②口口口 |①-②-|
口②口口 |--③④|
口口①口
③口④口
口⑤口⑥
⑦口⑧口
⑨口⑩口 |⑤⑥⑦⑧|
口⑪口⑫ |⑨⑩⑪⑫|
44
①口①口 |①-②-|
⑤③⑤③ |--③-|
口②口② |④---|
④⑥④⑥ |⑤-⑥-|
45
口口口② |--①-|
口口口口 |----|
口①①口 |②---|
口口口口 |----|
46
口口口口 |①---|
③⑤④口 |②-③-|
口③①口 |--④-|
⑤①口② |⑤---|
47
口③①口 |①-②-|
口口口④ |----|
②④口③ |③---|
口②口口 |④---|
48
①⑤口口 |①---|
③①④口 |②-③-|
⑤口口口 |--④-|
③口②口 |⑤---|
49
口⑥口⑤ |①-②-|
⑥④口口 |--③-|
口②③① |④---|
④②口口 |⑤-⑥-|
50
②口口口 |--①-|
口口③口 |②---|
②口口口 |③-④-|
④④①⑤ |--⑤-|
51
③③口口 |①---|
①⑤口④ |②-③-|
口①②口 |--④-|
⑤口口口 |⑤---|
52
⑥④①口 |①-②-|
④口③口 |--③-|
②⑥口口 |④---|
口②⑤口 |⑤-⑥-|
53
口口③口 |--①-|
口②口① |②---|
④口口口 |③-④-|
②④口⑤ |--⑤-|
54
①⑤口口 |①---|
③③口④ |②-③-|
⑤①②口 |--④-|
口口口口 |⑤---|
55
④口口④ |①-②-|
口口①口 |--③-|
口④④口 |④---|
②②口③ |----|
56
口口口口 |----|
口口口口 |----|
口口口口 |----|
口口口口 |----|
57
口口口口 |----|
口口口口 |----|
口口口口 |----|
口口口口 |----|
58
口口口口 |----|
口口口口 |----|
口口口口 |----|
口口口口 |----|
59
②口口口 |①---|
口口口口 |---②|
口口口口
口①①口
口③④口
口口口口
口口口口 |--③-|
口⑤⑤口 |-④⑤-|
60
口口⑥⑤ |----|
口①②口 |①②③④|
口③④口 |--⑤-|
口口口口 |-⑥--|
61
②①⑤④ |①--②|
口口口⑦ |③--④|
⑥⑥口口 |--⑤-|
口③③口 |--⑥⑦|
62
⑤⑩⑨⑧ |①②③④|
③①②口 |⑤⑥⑦⑧|
⑪口④⑪ |--⑨-|
⑦⑦⑥口 |-⑩⑪-|
63
口口口口 |----|
①②③④ |①--②|
口口口口 |--③-|
口⑤⑤口 |-④⑤-|
64
④③②① |----|
口口口口 |①--②|
口口口口 |--③-|
口口口口 |-④--|
65
口口口口 |①--②|
⑧口②① |③--④|
④⑤⑥口 |--⑤-|
⑦③③⑦ |-⑥⑦⑧|
66
④⑤⑥口 |①②③④|
口①②③ |⑤⑥⑦⑧|
⑦口口⑦ |⑨---|
口⑧⑨口 |----|
67
①口口④ |①-②-|
口口⑤⑦ |③-④-|
⑥口②口 |⑤-⑥⑦|
⑧③口⑧ |--⑧-|
68
②⑥①③ |---①|
口⑧口⑬ |②③④⑤|
口④⑪⑦ |⑥⑦⑧⑨|
⑩⑫⑤⑨ |⑩⑪⑫⑬|
69
③口口④ |①②③④|
①口②口 |⑤---|
⑤⑤口口
口口口口
口⑦⑥口
口⑨⑫⑫
口口⑧口 |⑥⑦⑧⑨|
口⑪⑩口 |⑩⑪⑫-|
70
口⑦⑥口 |--①②|
①⑨⑩⑩ |③④⑤-|
⑤⑤⑧② |--⑥⑦|
③口口④ |⑧⑨⑩-|
71
③口口② |----|
口口口口 |①-②-|
①口⑧⑧ |③-④⑤|
⑤⑦⑥④ |⑥⑦⑧-|
72
⑥口口口 |①②③④|
①②③④ |⑤-⑥-|
⑤口口口
口口口口
口口口⑦
⑩口口口
口口口⑪ |⑦-⑧⑨|
⑧口口⑨ |-⑩-⑪|
73
④口口⑤ |-①-②|
⑥②①口 |③---|
⑩⑩⑦口 |④⑤⑥⑦|
⑧③③⑨ |⑧⑨⑩-|
74
④②⑤⑤ |--①②|
口⑥③口 |③④⑤-|
口口⑨① |-⑥⑦⑧|
⑧⑩⑩⑦ |⑨-⑩-|
75
④③②口 |①---|
①口口① |②---|
口口口口 |③---|
口⑤⑤口 |④-⑤-|
76
④③②① |①---|
口口口口 |②---|
口口口口 |③---|
口口口口 |④---|
77
④③②① |①---|
口②②口 |②---|
口⑤⑤口 |③---|
口口口口 |④-⑤-|
78
口④②① |①---|
口⑤⑥口 |②-③-|
口⑦⑧⑧ |④--⑤|
口③③口 |⑥⑦⑧-|
79
④③②① |①---|
口口口口 |②---|
口口口口 |③---|
口⑤⑤口 |④-⑤-|
80
口⑨⑧口 |①②③④|
口①②⑦ |⑤⑥-⑦|
口③④口 |--⑧-|
⑤口口⑥ |-⑨--|
81
④口口口 |①-②-|
①口口⑤ |③-④⑤|
口口口②
口口③③
口⑩⑨⑪
⑫⑫⑦口
口⑥口口 |⑥⑦⑧⑨|
⑧口口口 |⑩⑪⑫-|
82
⑩⑥⑦⑩ |--①②|
口口⑤⑤ |③④⑤-|
口④①口 |--⑥⑦|
⑧②③⑨ |⑧⑨⑩-|
83
口口⑤口 |--①-|
口①③口 |②---|
②口口② |③-④-|
④口口④ |--⑤-|
84
①②口① |①---|
③口口③ |②-③-|
口①①口 |----|
口③③口 |----|
不确定度: 0