fellow
ピンクターボ

ADVANCED

Level: 5
BPM: 179
Notes: 316

1
口口口口 |----|
口口口口 |----|
口口口口 |----|
口口口口 |----|
2
口口④口 |----|
口③口口 |①---|
①口口② |②---|
口口口口 |③-④-|
3
口口口口 |----|
口口口口 |----|
口口口口 |----|
口口口口 |----|
4
口②口④ |①-②-|
①口③口 |--③-|
口口口口 |④---|
口口口口 |----|
5
口口口口 |①-②-|
口口口口 |--③-|
口②口④ |④---|
①口③口 |----|
6
口口④口 |----|
口③口口 |①---|
①口口② |②---|
口口口口 |③-④-|
7
口口口口 |----|
口口口口 |----|
口口口口 |----|
口口口口 |----|
8
口②口④ |①-②-|
①口③口 |--③-|
口口口口 |④---|
口口口口 |----|
9
口口口口 |①-②-|
口口口口 |--③-|
口②口④ |④---|
①口③口 |----|
10
口①口口 |①-②-|
⑤口②⑤ |③-④-|
⑤③口⑤ |----|
口口④口 |⑤---|
11
口口口口 |①-②-|
口口③⑥ |③---|
口②⑤口 |④-⑤-|
①④口口 |⑥---|
12
口②⑤口 |①-②-|
①④口口 |③-④-|
③口口⑦ |⑤---|
口口⑥口 |⑥-⑦-|
13
口口口口 |①-②-|
口口⑥③ |③---|
口⑤②口 |④-⑤-|
④①口口 |⑥---|
14
口①⑤口 |①-②-|
②④口口 |③-④-|
③口口口 |⑤---|
口口口口 |----|
15
口口口口 |①-②-|
口口③⑥ |③---|
口②⑤口 |④-⑤-|
①④口口 |⑥---|
16
口②⑤口 |①-②-|
①④口口 |③-④-|
③口口⑦ |⑤---|
口口⑥口 |⑥-⑦-|
17
口口口⑥ |①---|
口口⑤② |②---|
口④口口 |③-④-|
③①口口 |⑤-⑥-|
18
口口①口 |①---|
②③口口 |----|
口口④口 |--②-|
口口口口 |③-④-|
19
口③②口 |①---|
口口口口 |②-③-|
口口口① |----|
口口口口 |----|
20
口口口口 |----|
口口③口 |----|
①②口口 |--①-|
口口口口 |②-③-|
21
②③口口 |①---|
口口口① |②-③-|
口口口口 |----|
口口口口 |----|
22
口口口口 |----|
①②口口 |----|
口口口口 |----|
口口口口 |①-②-|
23
口口口口 |①---|
口口①口 |--②-|
口口口② |----|
口口口口 |----|
24
①口口口 |----|
口口口口 |----|
口口口口 |----|
口口口口 |①---|
25
口口口① |①---|
②口口③ |②---|
口口口口 |③---|
口④⑤口 |④-⑤-|
26
口口口口 |----|
①口③口 |----|
口②口口 |--①-|
口口口口 |②-③-|
27
口②口③ |①---|
口口口口 |②-③-|
口口口① |----|
口口口口 |----|
28
口口口口 |----|
口②口口 |----|
①口③口 |--①-|
口口口口 |②-③-|
29
②口③口 |①---|
口口口① |②-③-|
口口口口 |----|
口口口口 |----|
30
口口口口 |----|
①②口口 |----|
口口口口 |----|
口口口口 |①-②-|
31
③口口口 |①---|
口口①口 |--②-|
口口口② |----|
口口口口 |③---|
32
口口口① |①---|
口口口口 |--②-|
口口口口 |----|
②口口③ |③---|
33
口口口口 |①---|
口①①口 |--②-|
②口口③ |③---|
口口口口 |----|
34
口口口口 |----|
口口口口 |----|
口口口口 |----|
口口口口 |----|
35
口口②口 |----|
①①③口 |①---|
口②口③ |②---|
口口口口 |③---|
36
③口口④ |①---|
口口口口 |②---|
口口口口 |③---|
①口口② |④---|
37
口③口口 |①---|
口口②口 |--②-|
口①口口 |----|
口口口口 |③---|
38
口口口口 |①---|
①口口① |----|
口口口口 |----|
口口口口 |----|
39
口口①口 |----|
口口②口 |①---|
口口③口 |②---|
口口口口 |③---|
40
口口口口 |①---|
④①口口 |②---|
④②口口 |③---|
口③口口 |④---|
41
②③口口 |①---|
口口口① |②-③-|
口口口① |----|
口口口口 |----|
42
口口口口 |----|
口口口口 |----|
口口口口 |----|
口口口口 |----|
43
口口口口 |----|
口①②口 |①---|
口③口口 |②---|
口口口口 |③---|
44
④口口口 |①---|
②口口③ |②---|
口口①口 |③---|
口口口口 |④---|
45
口②②① |①---|
口口口口 |--②-|
③口口③ |----|
口口口口 |③---|
46
①③③① |①---|
口口口口 |--②-|
口口口口 |----|
口②②口 |③---|
47
②口口② |①---|
口口口口 |--②-|
口③口口 |----|
①口口① |③---|
48
口口口口 |①---|
②口口③ |--②-|
口口①口 |----|
口口口口 |③---|
49
②口口② |①---|
口口口口 |--②-|
①口口① |----|
口口口口 |----|
50
口口口口 |----|
①②口口 |①---|
口口③口 |②---|
口口口口 |③---|
51
口口口口 |①---|
口口口口 |----|
口口口① |----|
口口口口 |----|
52
口口口口 |----|
口口口口 |----|
口口口口 |----|
口口口口 |----|
53
口①③口 |①---|
口①③口 |②---|
口口口口 |③---|
口④②口 |④---|
54
口口口口 |①-②-|
口口口口 |③-④-|
①②③④ |----|
口口口口 |----|
55
口口③④ |①-②-|
①②口口 |③-④-|
口口口口 |⑤---|
⑥口口⑤ |⑥---|
56
②口口③ |①---|
口口口口 |②-③-|
口①①口 |----|
口口口口 |----|
57
口①①口 |①---|
②③④口 |②-③-|
口口⑥⑤ |④---|
口口口口 |⑤-⑥-|
58
口②④口 |①---|
口口口口 |②-③-|
口①口口 |--④-|
口口③口 |----|
59
口口口口 |①---|
②④⑥口 |②-③-|
口③⑤⑦ |④-⑤-|
①口口① |⑥-⑦-|
60
口口口① |①---|
口口口口 |----|
口口口口 |----|
口口口口 |----|
61
口口口口 |①-②-|
①口口② |--③-|
③口口④ |④---|
口⑤⑤口 |⑤---|
62
口口口口 |①-②-|
①②③④ |③-④-|
口口口口 |----|
口口口口 |----|
63
①口口② |①-②-|
③口口④ |③-④-|
⑤口口⑥ |⑤-⑥-|
⑦口口⑧ |⑦-⑧-|
64
②口口③ |①---|
口①口口 |②-③-|
口口口口 |----|
口口口口 |----|
65
口⑥③口 |①-②-|
⑦⑤②口 |③---|
口④①口 |④-⑤-|
口口口口 |⑥-⑦-|
66
口口口口 |①---|
口④④① |②-③-|
口口口口 |--④-|
②口口③ |----|
67
①口口② |①---|
口口口口 |②-③-|
③口口⑥ |④-⑤-|
口④⑤口 |⑥---|
68
口口口口 |①---|
①口⑤① |②---|
口④口口 |③---|
②口口③ |④-⑤-|
69
口口口口 |----|
口口口口 |----|
口口口口 |----|
口口口口 |----|
70
口口口口 |①-②-|
口②口④ |--③-|
①口③口 |④---|
口口口口 |----|
71
口②口④ |①-②-|
①口③口 |--③-|
口口口口 |④---|
口口口口 |----|
72
口口④口 |----|
口③口口 |①---|
①口口② |②---|
口口口口 |③-④-|
73
口口口口 |----|
口口口口 |----|
口口口口 |----|
口口口口 |----|
74
口②口④ |①-②-|
①口③口 |--③-|
口口口口 |④---|
口口口口 |----|
75
口口口口 |①-②-|
口口口口 |--③-|
口②口④ |④---|
①口③口 |----|
76
口口④口 |----|
口③口口 |①---|
①口口② |②---|
口口口口 |③-④-|
77
口口口口 |----|
口口口口 |----|
口口口口 |----|
口口口口 |----|
78
口②口④ |①-②-|
①口③口 |--③-|
口口口口 |④---|
口口口口 |----|
79
口口口口 |①-②-|
口口口口 |--③-|
口②口④ |④---|
①口③口 |----|
80
口口④口 |----|
口③口口 |①---|
①口口② |②---|
口口口口 |③-④-|
81
口口口口 |----|
口口口口 |----|
口口口口 |----|
口口口口 |----|
82
口④口② |①-②-|
③口①口 |--③-|
口口口口 |④---|
口口口口 |----|
83
口⑥口⑥ |①-②-|
口口口口 |--③-|
⑤④⑤② |④---|
③口①口 |⑤-⑥-|


不确定度: 0

タグ:

+ タグ編集
  • タグ:

このサイトはreCAPTCHAによって保護されており、Googleの プライバシーポリシー利用規約 が適用されます。

最終更新:2012年11月10日 14:30