Shine On Me
kors k

ADVANCED

Level: 8
BPM: 170
Notes: 602

1
口口口口 |----|
口口口口 |----|
口口口口 |----|
口口口口 |----|
2
口口②② |①---|
①口④④ |②---|
③口口口 |③---|
口口口口 |④---|
3
口口④④ |①---|
③口口口 |②---|
口口②② |③---|
①口口口 |④---|
4
口口口口 |①---|
口口②② |②---|
①口④④ |③---|
③口口口 |④---|
5
口②②口 |①---|
③口口③ |-②--|
③口口③ |----|
口①①口 |③---|
6
⑤④③口 |①-②-|
口①⑥口 |--③-|
口口②口 |④-⑤-|
口口口口 |--⑥-|
7
口口口口 |--①-|
口口⑥⑦ |②-③-|
④⑤口口 |④-⑤-|
口①②③ |⑥-⑦-|
8
⑤④③口 |①-②-|
口①⑥口 |--③-|
口口②口 |④-⑤-|
口口口口 |--⑥-|
9
口口口口 |--①-|
口口⑥⑦ |②-③-|
④⑤口口 |④-⑤-|
口①②③ |⑥-⑦-|
10
⑤④③口 |①-②-|
口①⑥口 |--③-|
口口②口 |④-⑤-|
口口口口 |--⑥-|
11
口口口口 |--①-|
口口⑥⑦ |②-③-|
④⑤口口 |④-⑤-|
口①②③ |⑥-⑦-|
12
⑤④③口 |①-②-|
口①⑥口 |--③-|
口口②口 |④-⑤-|
口口口口 |--⑥-|
13
口口口口 |--①-|
口口⑥⑦ |②-③-|
④⑤口口 |④-⑤-|
口①②③ |⑥-⑦-|
14
⑤④③口 |①-②-|
①①⑥口 |--③-|
口口②口 |④-⑤-|
口口口口 |--⑥-|
15
口口口口 |--①-|
口口⑥⑦ |②-③-|
④⑤口口 |④-⑤-|
口①②③ |⑥-⑦-|
16
⑤④③口 |①-②-|
①①⑥口 |--③-|
口口②口 |④-⑤-|
口口口口 |--⑥-|
17
口口口口 |--①-|
口口⑥⑦ |②-③-|
④⑤口口 |④-⑤-|
口①②③ |⑥-⑦-|
18
⑤④③口 |①-②-|
①①⑥口 |--③-|
口口②口 |④-⑤-|
口口口口 |--⑥-|
19
口口口口 |--①-|
口口⑥⑦ |②-③-|
④⑤口口 |④-⑤-|
口①②③ |⑥-⑦-|
20
⑤④③口 |①-②-|
①①⑥口 |--③-|
口口②口 |④-⑤-|
口口口口 |--⑥-|
21
口口口① |①-②-|
①口⑦⑧ |③-④-|
⑤⑥口口 |⑤-⑥-|
口②③④ |⑦-⑧-|
22
⑤④③口 |①-②-|
①①⑥口 |--③-|
口口②口 |④-⑤-|
口口口口 |--⑥-|
23
口口口口 |--①-|
口口⑥⑦ |②-③-|
④⑤口口 |④-⑤-|
口①②③ |⑥-⑦-|
24
④③②口 |--①-|
口口⑤口 |--②-|
口口①口 |③-④-|
口口口口 |--⑤-|
25
口口口口 |--①-|
口口⑥⑦ |②-③-|
④⑤口口 |④-⑤-|
口①②③ |⑥-⑦-|
26
④③②口 |--①-|
口口⑤口 |--②-|
口口①口 |③-④-|
口口口口 |--⑤-|
27
口口口口 |--①-|
口口⑥⑦ |②-③-|
④⑤口口 |④-⑤-|
口①②③ |⑥-⑦-|
28
④③②口 |--①-|
口口⑤口 |--②-|
口口①口 |③-④-|
口口口口 |--⑤-|
29
口口口口 |--①-|
口口口口 |----|
口口口口 |----|
口①口口 |----|
30
口口⑤③ |①---|
口口口口 |--②-|
①④②口 |③---|
口口口口 |④-⑤-|
31
②③口⑤ |①---|
口口口口 |②---|
口口④① |③-④-|
口口口口 |⑤---|
32
口口⑤③ |①---|
口口口口 |--②-|
①④②口 |③---|
口口口口 |④-⑤-|
33
②③口⑤ |①---|
口口口口 |②---|
口口④① |③-④-|
口口口口 |⑤---|
34
口口⑤③ |①---|
口口口口 |--②-|
①④②口 |③---|
口口口口 |④-⑤-|
35
②③口⑤ |①---|
口口口口 |②---|
口口④① |③-④-|
口口口口 |⑤---|
36
口口⑤③ |①---|
口口口口 |--②-|
①④②口 |③---|
口口口口 |④-⑤-|
37
②③口⑤ |①---|
口口口口 |②---|
口口④① |③-④-|
口口口口 |⑤---|
38
口口⑤③ |①---|
口口口口 |--②-|
①④②口 |③---|
口口口口 |④-⑤-|
39
②③口⑤ |①---|
口口口口 |②---|
口口④① |③-④-|
口口口口 |⑤---|
40
口口⑤③ |①---|
口口口口 |--②-|
①④②口 |③---|
口口口口 |④-⑤-|
41
②③口⑤ |①---|
口口口口 |②---|
口口④① |③-④-|
口口口口 |⑤---|
42
口口⑤③ |①---|
口口口口 |--②-|
①④②口 |③---|
口口口口 |④-⑤-|
43
②③口⑤ |①---|
口口口口 |②---|
口口④① |③-④-|
口口口口 |⑤---|
44
口口口口 |①---|
口①①口 |----|
口②②口 |②---|
口口口口 |----|
45
②口口② |①---|
口口口口 |-②--|
口③③口 |③---|
①口口① |----|
46
口②口④ |①-②-|
口口口口 |③-④-|
①口③口
口口口口

口口⑥口
口口口口
⑦⑤口口 |⑤-⑥-|
口口口口 |--⑦-|
47
口口口口 |--①-|
⑥①⑤③ |②-③-|
口口口口 |④-⑤-|
口④②口 |--⑥-|
48
口①⑤③ |--①-|
口口口口 |②-③-|
⑥④②口 |④-⑤-|
口口口口 |--⑥-|
49
口口口口 |--①-|
⑥①⑤③ |②-③-|
口口口口 |④-⑤-|
口④②口 |--⑥-|
50
口①口③ |--①-|
口④口⑥ |②-③-|
口口②口 |--④-|
口口⑤口 |⑤-⑥-|
51
口①口③ |--①-|
口④口⑥ |②-③-|
口口②口 |--④-|
口口⑤口 |⑤-⑥-|
52
口④口② |①-②-|
口⑥口⑧ |③-④-|
③口①口 |⑤-⑥-|
⑤口⑦口 |⑦-⑧-|
53
口口口口 |①---|
②口①口 |②---|
口①口②
口口口口

④口口④
口⑤⑤口
口口口口 |③--④|
口③③口 |--⑤-|
54
⑦③⑦⑤ |①-②-|
口口口口 |③-④-|
②⑥④⑥ |⑤-⑥-|
①口口口 |--⑦-|
55
⑧口⑥口 |①-②-|
②③④口 |③-④-|
口⑦口⑤ |⑤-⑥-|
口①口口 |⑦-⑧-|
56
⑦③⑦⑤ |①-②-|
口口口口 |③-④-|
②⑥④⑥ |⑤-⑥-|
口口①口 |--⑦-|
57
⑧口⑦口 |①-②-|
②③④口 |③-④-|
口⑥口⑤ |⑤-⑥-|
口口口① |⑦-⑧-|
58
⑦③⑦⑤ |①-②-|
口口口口 |③-④-|
②⑥④⑥ |⑤-⑥-|
①口口口 |--⑦-|
59
⑧口⑥口 |①-②-|
②③④口 |③-④-|
口⑦口⑤ |⑤-⑥-|
口①口口 |⑦-⑧-|
60
⑦③⑦⑤ |①-②-|
口口口口 |③-④-|
②⑥④⑥ |⑤-⑥-|
口口①口 |--⑦-|
61
⑦②⑤④ |①-②-|
口口口口 |③-④-|
①⑥③口 |--⑤-|
口口口① |⑥-⑦-|
62
⑦③⑦⑤ |①-②-|
口口口口 |③-④-|
②⑥④⑥ |⑤-⑥-|
①口口口 |--⑦-|
63
⑧口⑥口 |①-②-|
②③④口 |③-④-|
口⑦口⑤ |⑤-⑥-|
口①口口 |⑦-⑧-|
64
⑦③⑦⑤ |①-②-|
口口口口 |③-④-|
②⑥④⑥ |⑤-⑥-|
口口①口 |--⑦-|
65
⑧口⑦口 |①-②-|
②③④口 |③-④-|
口⑥口⑤ |⑤-⑥-|
口口口① |⑦-⑧-|
66
⑦③⑦⑤ |①-②-|
口口口口 |③-④-|
②⑥④⑥ |⑤-⑥-|
①口口口 |--⑦-|
67
⑧口⑥口 |①-②-|
②③④口 |③-④-|
口⑦口⑤ |⑤-⑥-|
口①口口 |⑦-⑧-|
68
⑦③⑦⑤ |①-②-|
口口口口 |③-④-|
②⑥④⑥ |⑤-⑥-|
口口①口 |--⑦-|
69
口②口④ |①-②-|
口⑥⑦口 |③-④-|
①口③口 |⑤---|
口⑤⑤① |⑥-⑦-|
70
⑦③⑦⑤ |①-②-|
①口口① |③-④-|
②⑥④⑥ |⑤-⑥-|
①口口口 |--⑦-|
71
⑧口⑥口 |①-②-|
②③④口 |③-④-|
口⑦口⑤ |⑤-⑥-|
口①口口 |⑦-⑧-|
72
⑦③⑦⑤ |①-②-|
口口口口 |③-④-|
②⑥④⑥ |⑤-⑥-|
口口①口 |--⑦-|
73
⑧口⑦口 |①-②-|
②③④口 |③-④-|
口⑥口⑤ |⑤-⑥-|
口口口① |⑦-⑧-|
74
⑦③⑦⑤ |①-②-|
口口口口 |③-④-|
②⑥④⑥ |⑤-⑥-|
①口口口 |--⑦-|
75
⑧口⑥口 |①-②-|
②③④口 |③-④-|
口⑦口⑤ |⑤-⑥-|
口①口口 |⑦-⑧-|
76
⑦③⑦⑤ |①-②-|
口口口口 |③-④-|
②⑥④⑥ |⑤-⑥-|
口口①口 |--⑦-|
77
⑦②⑤④ |①-②-|
口口口口 |③-④-|
①⑥③口 |--⑤-|
口口口① |⑥-⑦-|
78
⑦③⑦⑤ |①-②-|
口口口口 |③-④-|
②⑥④⑥ |⑤-⑥-|
①口口口 |--⑦-|
79
⑧口⑥口 |①-②-|
②③④口 |③-④-|
口⑦口⑤ |⑤-⑥-|
口①口口 |⑦-⑧-|
80
⑦③⑦⑤ |①-②-|
口口口口 |③-④-|
②⑥④⑥ |⑤-⑥-|
口口①口 |--⑦-|
81
⑧口⑦口 |①-②-|
②③④口 |③-④-|
口⑥口⑤ |⑤-⑥-|
口口口① |⑦-⑧-|
82
⑦③⑦⑤ |①-②-|
口口口口 |③-④-|
②⑥④⑥ |⑤-⑥-|
①口口口 |--⑦-|
83
⑧口⑥口 |①-②-|
②③④口 |③-④-|
口⑦口⑤ |⑤-⑥-|
口①口口 |⑦-⑧-|
84
⑦③⑦⑤ |①-②-|
口口口口 |③-④-|
②⑥④⑥ |⑤-⑥-|
口口①口 |--⑦-|
85
口②口④ |①-②-|
口口口口 |③-④-|
①口③口
口口口①

口口口口
口⑤⑤口
口口口口 |⑤---|
⑦⑥⑥⑦ |⑥-⑦-|
86
口①①口 |①---|
②口口口 |----|
口口口口 |②---|
口口口口 |----|
87
口口口口 |①---|
口口口口 |----|
口口口① |②---|
②口口口 |----|
88
口①口口 |①---|
口口②口 |----|
口口口口 |②---|
口口口口 |----|
89
口口口口 |①---|
口口口口 |----|
口①口口 |②---|
口口②口 |----|


不确定度: 0

タグ:

+ タグ編集
  • タグ:

このサイトはreCAPTCHAによって保護されており、Googleの プライバシーポリシー利用規約 が適用されます。

最終更新:2012年11月10日 14:25