ALL MY HEART -この恋に、わたしの全てを賭ける-
SUPER HEROINE 彩香 -AYAKA-

BASIC

Level: 4
BPM: 160
Notes: 218

1
口口口口 |----|
口口口口 |----|
口口口口 |----|
口口口口 |----|
2
口口口口 |①---|
口口口口 |----|
口②③口 |②---|
口①①口 |③---|
3
口②③口 |①---|
口①①口 |----|
口口口口 |②---|
口口口口 |③---|
4
口口口口 |①---|
口②③口 |----|
口①①口 |②---|
口口口口 |③---|
5
口口口口 |①---|
口口口口 |----|
口②③口 |②---|
口①①口 |③---|
6
口①①口 |①---|
口②③口 |----|
口口口口 |②---|
口口口口 |③---|
7
口口口口 |①---|
口口口口 |----|
口①①口 |②---|
口②③口 |③---|
8
口口口口 |①---|
口①①口 |----|
口②③口 |②---|
口口口口 |③---|
9
口①①口 |①---|
口口口口 |----|
口②③口 |②---|
口口口口 |③---|
10
口口口① |-①--|
口口④口 |----|
口③口② |②--③|
口口口口 |-④--|
11
①口口口 |-①--|
口口口口 |----|
口②口③ |②---|
口口口口 |③---|
12
口口口① |-①--|
口口④口 |----|
口③口② |②--③|
口口口口 |-④--|
13
①口口口 |-①--|
口口口口 |----|
口②口③ |②---|
口口口口 |③---|
14
口口口① |-①--|
口口④口 |----|
口③口② |②--③|
口口口口 |-④--|
15
①口口口 |-①--|
口口口口 |----|
口②口③ |②---|
口口口口 |③---|
16
口口口① |-①--|
口口④口 |----|
口②口③ |②--③|
口口口口 |-④--|
17
口③②口 |-①--|
口⑤④口 |-②-③|
口口①口 |-④-⑤|
口口口口 |----|
18
口口口口 |①---|
口口口口 |----|
口口②口 |②---|
口①口口 |----|
19
口口口口 |①---|
口①口口 |----|
口口口口
口口口口

口②②口
口③③口
口口口口 |②---|
口口口口 |③---|
20
口口口口 |①---|
口口口口 |----|
口口②口 |②---|
口①口口 |----|
21
口口口口 |①---|
口①口口 |----|
口口口口
口口口口

口②②口
口③③口
口口口口 |②---|
口口口口 |③---|
22
口口口口 |①--②|
口口口口 |--③-|
①②③口 |----|
口口⑤④ |④--⑤|
23
口口口口 |----|
口口口口 |----|
口口口口 |----|
口①口口 |①---|
24
口口②口 |①---|
口口口口 |----|
口①口口 |②---|
口口口口 |----|
25
口口口口 |①---|
口口①口 |----|
口口口口 |----|
口口口口 |----|
26
口口口口 |①---|
口口口口 |----|
口口②口 |②---|
口①口口 |----|
27
口口口口 |①---|
口①口口 |----|
口口口口
口口口口

口②②口
口③③口
口口口口 |②---|
口口口口 |③---|
28
口口口口 |①---|
口口口口 |----|
口口②口 |②---|
口①口口 |----|
29
口口口口 |①---|
口①口口 |----|
口口口口
口口口口

口②②口
口③③口
口口口口 |②---|
口口口口 |③---|
30
口口口口 |①--②|
口口口口 |--③-|
①②③口 |----|
口口⑤④ |④--⑤|
31
口口口口 |----|
口口口口 |----|
①口口口 |①---|
口口口口 |----|
32
口③口口 |①---|
口④②口 |--②-|
口口①口 |--③-|
口口口口 |--④-|
33
口口口口 |----|
口口口口 |----|
口口口口 |----|
口口口口 |----|
34
口①②口 |①---|
口口口口 |----|
口口口口 |②---|
口口口口 |----|
35
口口口口 |①--②|
①口口口 |--③-|
②口口口 |----|
③口口口 |----|
36
口②①口 |①---|
口口口口 |----|
口口口口 |②---|
口口口口 |----|
37
口口口口 |①--②|
口口口① |--③-|
口④口② |----|
口口口③ |④---|
38
口口口口 |①---|
口口③口 |----|
口口②口 |②---|
口①口口 |③---|
39
口口②口 |--①-|
口口③口 |----|
口①口口 |②---|
口口口口 |③---|
40
口③③口 |①---|
口②②口 |----|
口口①口 |--②-|
口口口口 |--③-|
41
口口口口 |----|
口口口口 |----|
口口口口 |----|
口口口口 |----|
42
口口口① |--①-|
口口口② |--②-|
口③口口 |--③-|
口④口口 |--④-|
43
①口口口 |--①-|
②口口口 |--②-|
口口④口 |--③-|
口口③口 |--④-|
44
口①口口 |①--②|
口口②口 |--③-|
口③口口 |----|
口口口口 |----|
45
口②③口 |①---|
口①④口 |②---|
口口口口 |③---|
口口口口 |④---|
46
口口口口 |①---|
口口口口 |--②-|
口口口口 |----|
口①②口 |----|
47
①口口口 |①---|
②口口④ |②---|
口③口口 |③---|
口口口口 |④---|
48
口③②口 |①--②|
口口①口 |--③-|
口口口口 |----|
口口口口 |----|
49
口口口口 |----|
口①②口 |----|
口①②口 |①---|
口口口口 |②---|
50
口口口① |--①-|
口口口② |--②-|
口③口口 |--③-|
口④口口 |--④-|
51
①口口口 |--①-|
②口口口 |--②-|
口口④口 |--③-|
口口③口 |--④-|
52
口①口口 |①--②|
口口②口 |--③-|
口③口口 |----|
口口口口 |----|
53
口②口口 |①---|
③口①口 |②---|
口④口口 |③---|
口口口口 |④---|
54
口口口口 |①---|
口①口口 |----|
口口③口 |②--③|
口口②口 |----|
55
口口①口 |①---|
口③口口 |----|
口②口口 |②--③|
口口口口 |----|
56
①口口① |①---|
口口口口 |----|
口口口口 |----|
口口口口 |----|
57
口口口口 |①---|
①口口① |----|
口口口口 |----|
口口口口 |----|
58
口口口口 |①---|
口口口口 |----|
口②③口 |②---|
口①①口 |③---|
59
口②③口 |①---|
口①①口 |----|
口口口口 |②---|
口口口口 |③---|
60
口口口口 |①---|
口②③口 |----|
口①①口 |②---|
口口口口 |③---|
61
口口口口 |①---|
口口口口 |----|
口②③口 |②---|
口①①口 |③---|
62
口①①口 |①---|
口②③口 |----|
口口口口 |②---|
口口口口 |③---|
63
口口口口 |①---|
口口口口 |----|
口①①口 |②---|
口②③口 |③---|
64
口②③口 |①---|
口①①口 |----|
口口口口 |②---|
口口口口 |③---|
65
③口口③ |①---|
②口口② |----|
口①①口 |②---|
口口口口 |③---|


不确定度: 0

タグ:

+ タグ編集
  • タグ:

このサイトはreCAPTCHAによって保護されており、Googleの プライバシーポリシー利用規約 が適用されます。

最終更新:2012年11月10日 14:14