ALL MY HEART -この恋に、わたしの全てを賭ける-
SUPER HEROINE 彩香 -AYAKA-

ADVANCED

Level: 8
BPM: 160
Notes: 507

1
口口口口 |----|
口口口口 |----|
口口口口 |----|
口口口口 |----|
2
口④口口 |①--②|
口口③口 |--③-|
口②口口 |-④--|
①⑤⑥① |⑤-⑥-|
3
口口口口 |①--②|
口口③口 |--③-|
①②口①
口口口口

口④口口
⑤口口⑤
⑥口口⑥ |-④--|
口口口口 |⑤-⑥-|
4
口④口口 |①--②|
⑤口③⑤ |--③-|
⑥②口⑥ |-④--|
口①①口 |⑤-⑥-|
5
口③口口 |①--②|
④②⑥④ |--③-|
口口口⑤ |④--⑤|
口①①口 |--⑥-|
6
①口口① |①--②|
⑥②口⑥ |--③-|
⑤口③⑤ |-④--|
口④口口 |⑤-⑥-|
7
④①①④ |①--②|
口口口口 |--③-|
口②⑤口 |④--⑤|
口⑥③口 |--⑥-|
8
口口口口 |①--②|
口口③口 |--③-|
①②口①
口口口口

口④口口
口口口口
⑥口口⑥ |-④--|
口⑤⑤口 |⑤-⑥-|
9
①口口① |①---|
口②②口 |--②-|
口④口⑤ |③--④|
③口口③ |--⑤-|
10
①口⑤口 |-①--|
①⑧口② |②-③-|
口口⑦口 |④--⑤|
④⑥口③ |-⑥⑦⑧|
11
口口④① |-①--|
口口⑧① |②-③-|
口⑦口⑤ |④-⑤-|
②⑥③口 |⑥⑦-⑧|
12
①口⑤口 |-①--|
①⑧口② |②-③-|
口口⑦口 |④--⑤|
④⑥口③ |-⑥⑦⑧|
13
口口④① |-①--|
口口⑧① |②-③-|
口⑦口⑤ |④-⑤-|
②⑥③口 |⑥⑦-⑧|
14
①口⑤口 |-①--|
①⑧口② |②-③-|
口口⑦口 |④--⑤|
④⑥口③ |-⑥⑦⑧|
15
口口口① |-①--|
口口口① |②-③-|
口口口口
②口③口

口口④口
口口口⑧
口⑦口⑤ |④-⑤-|
口⑥口口 |⑥⑦-⑧|
16
①口⑤口 |-①--|
①⑧②口 |②-③-|
口口⑦口 |④--⑤|
④⑥③口 |-⑥⑦⑧|
17
③⑥⑥① |①②③④|
④口口② |-⑤-⑥|
口口口口
⑤口口⑤

⑫口口⑪
口⑩⑨口
⑦口口⑦ |-⑦-⑧|
口⑧⑧口 |⑨⑩⑪⑫|
18
口口口口 |①---|
口口③① |--②-|
③④②口 |③---|
②口口④ |--④-|
19
④⑤③② |①---|
口①口口 |--②-|
口口⑥① |③-④-|
⑥口口口 |⑤-⑥-|
20
口口口口 |①---|
口口①口 |--②-|
①②口口
口口口②

口口口口
口③④口
④口口③ |③---|
口口口口 |--④-|
21
⑤③①口 |①---|
①口口口 |--②-|
⑥口口口 |③-④-|
②④口口 |⑤-⑥-|
22
口口③③ |①--②|
口口②② |--③-|
口口①①
口口口口

④口口口
口口口口
⑤口⑦口 |--④-|
口口⑥口 |⑤-⑥⑦|
23
口口口口 |----|
口口口③ |----|
口口②口 |--①-|
口口①口 |②-③-|
24
②口口① |①---|
③②④口 |--②-|
口③口④ |③---|
口口口口 |--④-|
25
口口口口 |①---|
口口口口 |----|
口口①口
口口口①

口口口口
口口口口
口②口口 |----|
口口口② |--②-|
26
口口口口 |①---|
口①③口 |--②-|
③④②① |③---|
②口口④ |--④-|
27
④⑤③② |①---|
口①口口 |--②-|
口口⑥① |③-④-|
⑥口口口 |⑤-⑥-|
28
口口口口 |①---|
口口①口 |--②-|
①②口口
口口口②

口口口口
口③④口
④口口③ |③---|
口口口口 |--④-|
29
⑤③①口 |①---|
①口口口 |--②-|
⑥口口口 |③-④-|
②④口口 |⑤-⑥-|
30
口口③③ |①--②|
口口②② |--③-|
口口①①
口口口口

④口口口
口口口口
⑤口⑦口 |--④-|
口口⑥口 |⑤-⑥⑦|
31
口口口口 |----|
口③口口 |----|
口口②口 |①--②|
口①口口 |--③-|
32
③①口③ |①---|
④口口④ |--②-|
⑤口口⑤ |--③-|
口口②口 |④-⑤-|
33
口口口口 |----|
口口口口 |----|
口口口口 |----|
口①口口 |--①-|
34
口①口口 |①-②-|
②口④口 |③-④-|
⑤③口口 |⑤⑥-⑦|
⑥⑧口⑦ |--⑧-|
35
口①①口 |①--②|
④②②口 |--③-|
⑤③③口 |----|
口口口口 |--④⑤|
36
口口③口 |①-②-|
⑦④口口 |③-④-|
口口口⑤ |⑤⑥-⑦|
①⑧②⑥ |--⑧-|
37
口①①口 |①--②|
口②②口 |--③-|
口③③口
口口口口

口口⑤口
口口口口
④口口口 |----|
口口口口 |④-⑤-|
38
口口口口 |①---|
口口口口 |--②-|
口口口①
②②口口

口⑥⑥口
口口口口
④④⑤⑤ |③-④-|
口口③③ |⑤-⑥-|
39
口口口口 |--①-|
口①①口 |----|
②口口② |②---|
③口口③ |③---|
40
①④④① |①---|
口③③口 |----|
口②②口 |--②-|
口口口口 |③-④-|
41
⑦口口⑧ |①-②-|
⑤口口⑥ |③-④-|
③口口④ |⑤-⑥-|
①口口② |⑦-⑧-|
42
口口④口 |--①-|
口口③口 |②-③④|
口口口口
①口口②

口口口口
⑤口口口
口⑥口口 |--⑤-|
⑦口口口 |⑥-⑦-|
43
②口口口 |--①-|
口⑦④口 |②-③④|
⑥口③口 |--⑤-|
口⑤口① |⑥-⑦-|
44
口口①① |①--②|
口口②② |--③-|
口口③③ |----|
④口口口 |--④-|
45
④②口口 |①---|
③口④② |②---|
①口③口 |③---|
口口口口 |④---|
46
口口口口 |①---|
口①口口 |--②-|
口③口① |----|
②口口② |--③-|
47
口①④③ |①---|
口口口口 |②---|
口口口口 |③---|
③④口② |④---|
48
口口口口 |①--②|
①③③② |--③-|
②③③① |----|
口口口口 |----|
49
④⑤口口 |----|
④⑤口口 |--①-|
口③②① |②-③-|
口③②① |④⑤--|
50
口口④口 |--①-|
口口③口 |②-③④|
口口口口
①口口②

口口口口
⑤口口口
口⑥口口 |--⑤-|
⑦口口口 |⑥-⑦-|
51
②口口口 |--①-|
口⑦④口 |②-③④|
⑥口③口 |--⑤-|
口⑤口① |⑥-⑦-|
52
口口①① |①--②|
口口②② |--③-|
口口③③ |----|
④口口口 |--④-|
53
④②②④ |①---|
②④④② |②---|
③口口③ |③---|
口③③① |④---|
54
口口口口 |①---|
④口⑤口 |--②-|
口①①口 |③--④|
①③②① |--⑤-|
55
⑤⑤⑤⑤ |①---|
口口口① |--②-|
口④④口 |③--④|
②口口③ |--⑤-|
56
口口口口 |①---|
①①①① |----|
口口口口 |----|
口口口口 |----|
57
口口口口 |①---|
口口口口 |----|
口①①口 |----|
①口口① |----|
58
口④口口 |①--②|
口口③口 |--③-|
口②口口 |-④--|
①⑤⑥① |⑤-⑥-|
59
口口口口 |①--②|
口口③口 |--③-|
①②口①
口口口口

口④口口
⑤口口⑤
⑥口口⑥ |-④--|
口口口口 |⑤-⑥-|
60
口④口口 |①--②|
⑤口③⑤ |--③-|
⑥②口⑥ |-④--|
口①①口 |⑤-⑥-|
61
口③口口 |①--②|
④②⑥④ |--③-|
口口口⑤ |④--⑤|
口①①口 |--⑥-|
62
①口口① |①--②|
⑥②口⑥ |--③-|
⑤口③⑤ |-④--|
口④口口 |⑤-⑥-|
63
④①①④ |①--②|
口口口口 |--③-|
口②⑤口 |④--⑤|
口⑥③口 |--⑥-|
64
口⑥③口 |①--②|
①口口① |--③-|
口口口口 |-④--|
④口②⑤ |⑤-⑥-|
65
⑤口口⑤ |①②③④|
⑥口口⑥ |-⑤-⑥|
口③④口
口①②口

口口口口
口⑨⑩口
⑦⑪⑫⑦ |-⑦-⑧|
⑧口口⑧ |⑨⑩⑪⑫|


不确定度: 0

タグ:

+ タグ編集
  • タグ:

このサイトはreCAPTCHAによって保護されており、Googleの プライバシーポリシー利用規約 が適用されます。

最終更新:2012年11月10日 14:14