Theory of Eternity
TAG

BASIC

Level: 5
BPM: 160
Notes: 427

1
口口口口 |----|
口口口口 |----|
口口口口 |----|
口口口口 |----|
2
口口口口 |①-②-|
口口口口 |③-④-|
⑤⑥⑦⑧ |⑤-⑥-|
①②③④ |⑦-⑧-|
3
⑤⑥③④ |①-②-|
①②⑦⑧ |③-④-|
口口口口 |⑤-⑥-|
口口口口 |⑦-⑧-|
4
口口口口 |①-②-|
口口口口 |③-④-|
⑤⑥⑦⑧ |⑤-⑥-|
①②③④ |⑦-⑧-|
5
⑤⑥③④ |①-②-|
①②⑦⑧ |③-④-|
口口口口 |⑤-⑥-|
口口口口 |⑦-⑧-|
6
口口口口 |①-②-|
口口口口 |③-④-|
⑤⑥⑦⑧ |⑤-⑥-|
①②③④ |⑦-⑧-|
7
⑤⑥③④ |①-②-|
①②⑦⑧ |③-④-|
口口口口 |⑤-⑥-|
口口口口 |⑦-⑧-|
8
口口口口 |①-②-|
口口口口 |③-④-|
⑤⑥⑦⑧ |⑤-⑥-|
①②③④ |⑦-⑧-|
9
口①①口 |①-②-|
口②②口 |----|
口③③口 |----|
口口口口 |③---|
10
①口口① |①---|
口口②② |②---|
③③口口 |----|
口口口口 |③---|
11
口口口口 |----|
口④口口 |①---|
口口③口 |--②-|
口②①① |③-④-|
12
口口口口 |----|
口口①① |①---|
②②口口 |----|
口口口口 |②---|
13
①③④② |①---|
口口口口 |②---|
口口口口 |③---|
口口口口 |④---|
14
口口口口 |----|
口口①① |①---|
②②口口 |----|
口口口口 |②---|
15
口口口口 |----|
口④口口 |①---|
口口③口 |--②-|
口②①① |③-④-|
16
口口口口 |----|
口口①① |①---|
②②口口 |----|
口口口口 |②---|
17
①口口① |①---|
口④口口 |----|
口口③口 |--②-|
口②口口 |③-④-|
18
②①①② |----|
口口口口 |①---|
口口口口 |②---|
口口口口 |----|
19
口口口口 |①---|
口①①口 |----|
口②③口 |②---|
口口口口 |③---|
20
口口口口 |----|
口口口口 |①---|
②口口② |②---|
口①①口 |----|
21
口口口口 |①---|
①②口① |----|
口口③口 |②---|
口口口口 |③---|
22
口口口口 |----|
口口口口 |①---|
②口口② |②---|
口①①口 |----|
23
口口口口 |①---|
①②③① |----|
口口口口 |②---|
口口口口 |③---|
24
口口口口 |----|
口口口口 |①---|
②口口② |②---|
口①①口 |----|
25
口口口口 |①---|
①①①① |----|
口口口口 |----|
口口口口 |----|
26
口口口口 |----|
口②②口 |①---|
口①①口 |②---|
口口口口 |----|
27
①口口① |①---|
口口口口 |----|
口口口口 |②---|
②口口③ |③---|
28
口口口口 |----|
口②②口 |①---|
口①①口 |②---|
口口口口 |----|
29
①口口① |①---|
口③②口 |----|
口口口口 |②---|
口口口口 |③---|
30
口口口口 |----|
口②②口 |①---|
口①①口 |②---|
口口口口 |----|
31
①口口① |①---|
口口口口 |----|
口②口口 |②---|
口口③口 |③---|
32
口口口口 |----|
口②②口 |①---|
口①①口 |②---|
口口口口 |----|
33
口口口口 |①---|
①口口① |----|
①口口① |----|
口口口口 |----|
34
口口口口 |①---|
口口口口 |②---|
②②④④ |③---|
①口口③ |④---|
35
②②④④ |①---|
口①③口 |②---|
口口口口 |③---|
口口口口 |④---|
36
口口口口 |①---|
口口口口 |②---|
①②④③ |③---|
口②④口 |④---|
37
口①①口 |①---|
口②②口 |②---|
口③③口 |③---|
口④④口 |④---|
38
口口口口 |①---|
口口口口 |②---|
②②④④ |③---|
①口口③ |④---|
39
②②④④ |①---|
口①③口 |②---|
口口口口 |③---|
口口口口 |④---|
40
口口口口 |①---|
口口口口 |②---|
①②④③ |③---|
口②④口 |④---|
41
①口口① |①--②|
②口口② |--③-|
③⑥⑥③ |-④--|
④⑤⑤④ |⑤-⑥-|
42
口①①口 |①---|
口②②口 |②---|
③口口③ |③---|
口口口口 |----|
43
口口口口 |①---|
口口口口 |②---|
③①①③ |③---|
口②②口 |----|
44
①口口① |①---|
口②②口 |②---|
③口口③ |③---|
口口口口 |----|
45
口①①口 |①---|
口②②口 |②---|
③口口③ |③---|
④口口④ |④---|
46
口①①口 |①---|
口②②口 |②---|
③口口③ |③---|
口口口口 |----|
47
口口口口 |①---|
口口口口 |②---|
③①①③ |③---|
口②②口 |----|
48
①口口① |①---|
口②②口 |②---|
口③③口 |③---|
口④④口 |④---|
49
①口口① |①--②|
②口口② |--③-|
③口口③
口口口口

⑥口口⑥
口口口口
口⑤⑤口 |-④--|
口④④口 |⑤-⑥-|
50
口口口口 |----|
①②口口 |①---|
口口口口 |②---|
口口口口 |----|
51
口口口口 |----|
口口口口 |①---|
口口①② |②---|
口口口口 |----|
52
口口口口 |----|
口口口口 |①---|
口口口口 |②---|
①②口口 |----|
53
口口口口 |----|
口口口口 |①---|
口口①② |②---|
口口口口 |----|
54
口口口口 |----|
①②口口 |①---|
口口口口 |②---|
口口口口 |----|
55
口口①② |----|
口口口口 |①---|
口口口口 |②---|
口口口口 |----|
56
口⑦⑧口 |①-②-|
口⑤⑥口 |③-④-|
口③④口 |⑤-⑥-|
口①②口 |⑦-⑧-|
57
①口口① |①---|
口口口口 |----|
口口口口 |----|
口口口口 |----|
58
口口口口 |①---|
口口口口 |②---|
②②④④ |③---|
①口口③ |④---|
59
②②④④ |①---|
口①③口 |②---|
口口口口 |③---|
口口口口 |④---|
60
口口口口 |①---|
口口口口 |②---|
①②④③ |③---|
口②④口 |④---|
61
口①①口 |①---|
口②②口 |②---|
口③③口 |③---|
口④④口 |④---|
62
口口口口 |①---|
口口口口 |②---|
②②④④ |③---|
①口口③ |④---|
63
②②④④ |①---|
口①③口 |②---|
口口口口 |③---|
口口口口 |④---|
64
口口口口 |①---|
口口口口 |②---|
①②④③ |③---|
口②④口 |④---|
65
①口口① |①--②|
②口口② |--③-|
③⑥⑥③ |-④--|
④⑤⑤④ |⑤-⑥-|
66
口口口口 |----|
口①①口 |①---|
②口口② |②---|
口口口口 |----|
67
口口口口 |①---|
口口口口 |②---|
③①①③ |③---|
口②②口 |----|
68
①口口① |①---|
口②②口 |②---|
③口口③ |③---|
口口口口 |----|
69
口①①口 |①---|
口②②口 |②---|
③口口③ |③---|
④口口④ |④---|
70
口①①口 |①---|
口②②口 |②---|
③口口③ |③---|
口口口口 |----|
71
口口口口 |①---|
口口口口 |②---|
③①①③ |③---|
口②②口 |----|
72
①口口① |①---|
口②②口 |②---|
口③③口 |③---|
口④④口 |④---|
73
①口口① |①--②|
②口口② |--③-|
③⑤⑤③ |-④--|
⑥④④⑥ |⑤-⑥-|
74
口口口口 |--①-|
口①①口 |②---|
②口口②
口口口口

口③③口
④⑤⑤④
口口口口 |③-④-|
口口口口 |--⑤-|
75
③口口③ |①---|
口口口口 |②-③-|
①②②① |----|
口口口口 |----|


不确定度: 0

タグ:

+ タグ編集
  • タグ:

このサイトはreCAPTCHAによって保護されており、Googleの プライバシーポリシー利用規約 が適用されます。

最終更新:2012年11月10日 14:08