Sweet Rain
Y& Co. feat. Karin

BASIC

Levek: 4
BPM: 155
Notes: 279

1
口口口口 |----|
口口口口 |----|
口口口口 |----|
口口口口 |----|
2
口口口口 |①---|
口①①口 |----|
口①①口 |----|
口口口口 |----|
3
口口口④ |①---|
口口②口 |②---|
口①口口 |③---|
③口口口 |④---|
4
③口口口 |①---|
口①口口 |②---|
口口②口 |③---|
口口口④ |④---|
5
口口口口 |①---|
①口口② |②---|
③口口④ |③---|
口口口口 |④---|
6
①口口② |①-②-|
口④④口 |--③-|
口③③口 |----|
口口口口 |④---|
7
口口口口 |①---|
①口口② |②---|
③口口④ |③---|
口口口口 |④---|
8
①口口② |①---|
口口口口 |②---|
口口口口 |③---|
③口口④ |④---|
9
口口口口 |①---|
口②③口 |----|
口口口口 |②---|
口①①口 |③---|
10
①口口② |①---|
口口口口 |----|
口口口口 |②---|
口口口口 |----|
11
口口口口 |①---|
口②口④ |②---|
①口③口 |③---|
口口口口 |④---|
12
①口口② |①---|
口口口口 |----|
口口口口 |②---|
口口口口 |----|
13
口口口口 |①---|
口②口④ |②---|
①口③口 |③---|
口口口口 |④---|
14
①口口② |①---|
口口口口 |----|
口口口口 |②---|
口口口口 |----|
15
口口口口 |①---|
口②④口 |②---|
①口口③ |③---|
口口口口 |④---|
16
①口口② |①---|
口口口口 |----|
口口口口 |②---|
口口口口 |----|
17
③口口③ |①---|
口①①口 |--②-|
②口口② |----|
口口口口 |③---|
18
口口口口 |----|
①②③口 |①---|
口口口口 |②---|
口口口口 |③---|
19
口口口口 |①---|
口口口① |②---|
口④③② |③---|
口口口口 |④---|
20
口口口② |①---|
口口口口 |----|
①口口口 |②---|
口口口口 |----|
21
①口口口 |①---|
口③③口 |----|
口②②口 |②---|
口口口口 |③---|
22
口口口口 |----|
口③②① |①---|
口口口口 |②---|
口口口口 |③---|
23
口口口口 |①---|
①口口口 |②---|
②③④口 |③---|
口口口口 |④---|
24
②口口口 |①---|
口口口口 |----|
口口口① |②---|
口口口口 |----|
25
口③③口 |①---|
①口口② |--②-|
①口口② |--③-|
口口口口 |----|
26
口口口口 |----|
①②③口 |①---|
口口口口 |②---|
口口口口 |③---|
27
口口口口 |①---|
口口口① |②---|
口④③② |③---|
口口口口 |④---|
28
口②②口 |①---|
口口口口 |----|
①口口口 |--②-|
口口口口 |----|
29
③口口③ |①---|
②口口② |--②-|
口①①口 |--③-|
口口口口 |----|
30
口口口口 |----|
口③②① |①---|
口口口口 |②---|
口口口口 |③---|
31
口口口口 |①---|
①口口口 |②---|
②③④口 |③---|
口口口口 |④---|
32
②口口口 |①---|
口口口口 |----|
口口口① |----|
口口口口 |--②-|
33
口口口① |①-②-|
②口口③ |③-④-|
口④④口 |--⑤-|
口⑤⑤口 |----|
34
口口口口 |①---|
口①②口 |②---|
口④③口 |③---|
口口口口 |④---|
35
①口口② |①---|
口口口口 |②---|
口口口口 |③---|
④口口③ |④---|
36
口口口口 |①---|
口①①口 |----|
口②②口 |②---|
口口口口 |----|
37
口口口口 |①---|
①口口② |----|
①口口② |②---|
口口口口 |----|
38
口①②口 |①---|
口④③口 |②---|
口口口口 |③---|
口口口口 |④---|
39
口口口口 |①---|
口口口口 |②---|
口①②口 |③---|
口④③口 |④---|
40
②口口② |①---|
口口口口 |----|
口口口口 |②---|
①口口① |----|
41
口口③口 |--①-|
②口口口 |--②-|
口口①口 |--③-|
口口口口 |----|
42
口口口口 |①---|
口①②口 |②---|
口④③口 |③---|
口口口口 |④---|
43
①口口② |①---|
口口口口 |②---|
口口口口 |③---|
④口口③ |④---|
44
口口口口 |①---|
口①①口 |----|
口②②口 |②---|
口口口口 |----|
45
口口口口 |①---|
①口口② |----|
①口口② |②---|
口口口口 |----|
46
口①②口 |①---|
口④③口 |②---|
口口口口 |③---|
口口口口 |④---|
47
口口口口 |①---|
口口口口 |②---|
口①②口 |③---|
口④③口 |④---|
48
②口口② |①---|
口口口口 |----|
口口口口 |②---|
①口口① |----|
49
口口③口 |--①-|
口②口口 |--②-|
口口①口 |--③-|
口口口口 |----|
50
①口口口 |①---|
口②口口 |----|
口口口口 |②---|
口口口口 |----|
51
口口①口 |①---|
口口口② |----|
口口口口 |②---|
口口口口 |----|
52
口口口口 |①---|
口口口口 |----|
口口②口 |②---|
口口口① |----|
53
口口口口 |①---|
口口口口 |----|
②口口口 |②---|
口①口口 |----|
54
口口口口 |①---|
口①②口 |②---|
口④③口 |③---|
口口口口 |④---|
55
①口口② |①---|
口口口口 |②---|
口口口口 |③---|
④口口③ |④---|
56
口口口口 |①---|
口①①口 |----|
口②②口 |②---|
口口口口 |----|
57
口口口口 |①---|
①口口② |----|
①口口② |②---|
口口口口 |----|
58
口①②口 |①---|
口④③口 |②---|
口口口口 |③---|
口口口口 |④---|
59
口口口口 |①---|
口口口口 |②---|
口①②口 |③---|
口④③口 |④---|
60
②口口② |①---|
口口口口 |----|
口口口口 |②---|
①口口① |----|
61
口口③口 |--①-|
②口口口 |--②-|
口口①口 |--③-|
口口口口 |----|
62
口口口口 |①---|
口①②口 |②---|
口④③口 |③---|
口口口口 |④---|
63
①口口② |①---|
口口口口 |②---|
口口口口 |③---|
④口口③ |④---|
64
口口口口 |①---|
口①①口 |----|
口②②口 |②---|
口口口口 |----|
65
口口口口 |①---|
①口口② |----|
①口口② |②---|
口口口口 |----|
66
口①②口 |①---|
口④③口 |②---|
口口口口 |③---|
口口口口 |④---|
67
口口口口 |①---|
口口口口 |②---|
口①②口 |③---|
口④③口 |④---|
68
②口口② |①---|
口口口口 |----|
口口口口 |②---|
①口口① |----|
69
口口③口 |--①-|
口②口口 |--②-|
口口①口 |--③-|
口口口口 |----|
70
①口口② |①---|
口口口口 |----|
口口口口 |②---|
口口口口 |----|
71
口口口口 |①---|
口②口④ |②---|
①口③口 |③---|
口口口口 |④---|
72
①口口② |①---|
口口口口 |----|
口口口口 |②---|
口口口口 |----|
73
口口口口 |①---|
口②口④ |②---|
①口③口 |③---|
口口口口 |④---|
74
①口口② |①---|
口口口口 |----|
口口口口 |②---|
口口口口 |----|
75
口口口口 |①---|
口②④口 |②---|
①口口③ |③---|
口口口口 |④---|
76
①口口② |①---|
口口口口 |----|
口口口口 |②---|
口口口口 |----|
77
③口口③ |①---|
口①①口 |--②-|
②口口② |----|
口口口口 |③---|


不确定度: 0

タグ:

+ タグ編集
  • タグ:

このサイトはreCAPTCHAによって保護されており、Googleの プライバシーポリシー利用規約 が適用されます。

最終更新:2012年11月10日 14:07