Sweet Rain
Y& Co. feat. Karin

ADVANCED

Levek: 8
BPM: 155
Notes: 577

1
口口口口 |----|
口口口口 |----|
口口口口 |----|
口口口口 |----|
2
口②②口 |①-②-|
③口④口 |--③-|
口口⑤⑥ |--④-|
口①①口 |⑤-⑥-|
3
口⑧②口 |①-②-|
口①④口 |③-④-|
口③⑥口 |⑤-⑥-|
口⑤⑦口 |⑦-⑧-|
4
②口口⑧ |①-②-|
④口口① |③-④-|
⑥口口③ |⑤-⑥-|
⑦口口⑤ |⑦-⑧-|
5
口②口口 |①-②-|
⑦④①⑧ |③-④-|
⑨⑥③⑩ |⑤-⑥-|
口口⑤口 |⑦⑧⑨⑩|
6
口①①口 |①-②-|
口③口④ |--③-|
口口⑥⑤ |--④-|
②口口② |⑤-⑥-|
7
①口口② |①---|
③⑤口④ |②---|
口口口口 |③---|
口口口口 |④--⑤|
8
口口口口 |①---|
口口①口 |②---|
口口口口
口②②口

口口口口
口⑤⑤口
③口口④ |③-④-|
口口口口 |--⑤-|
9
①口④口 |①-②-|
口口口② |③-④-|
口③口口
口口口口

口⑦口口
⑤口口⑧
口口⑥口 |⑤-⑥-|
口口口口 |⑦-⑧-|
10
①口②② |①---|
③口口口 |②-③④|
①口口④ |--⑤-|
口⑤⑥⑦ |⑥-⑦-|
11
口口③口 |①-②-|
④口口① |③-④-|
口②口口
口口口口

口⑥口口
口⑧口⑦
口口⑤口 |⑤-⑥-|
口口口口 |⑦-⑧-|
12
①口口② |①②-③|
⑤口口⑥ |④-⑤⑥|
口⑦⑧⑨ |--⑦-|
③口口④ |⑧-⑨-|
13
①口口② |①②-③|
⑤⑥⑦口 |④-⑤-|
口口⑧⑨ |⑥-⑦-|
③口口④ |⑧-⑨-|
14
①口口② |①②-③|
⑤口口⑥ |④-⑤⑥|
口⑦⑧⑨ |--⑦-|
③口口④ |⑧-⑨-|
15
口②口口 |①-②-|
⑤⑦口③ |③-④-|
①口⑥⑧ |⑤-⑥-|
口口④口 |⑦-⑧-|
16
①口口② |①②-③|
⑤口口⑥ |④-⑤⑥|
口⑦⑧⑨ |--⑦-|
③口口④ |⑧-⑨-|
17
口①①口 |①--②|
②⑤⑥② |--③-|
④⑥⑤④ |-④--|
口③③口 |⑤-⑥-|
18
口口⑥口 |----|
口③口⑤ |①-②-|
②口④口 |③-④-|
口①口口 |⑤-⑥-|
19
②口口③ |①---|
口④①口 |②-③-|
口①④口 |--④-|
口⑤口口 |--⑤-|
20
口口②口 |①-②-|
口口口③ |③-④-|
①口④口
口口口口

口口⑥口
口⑥⑤口
口⑤口口 |--⑤-|
口口口口 |--⑥-|
21
口口口② |--①-|
①口口口 |②---|
④口口④ |③---|
③口口③ |④---|
22
口口口⑥ |----|
③口⑤口 |①-②-|
口②口④ |③-④-|
①口口口 |⑤-⑥-|
23
⑥⑤⑤口 |①-②-|
口口口③ |③-④-|
①口④口 |--⑤-|
口②口口 |--⑥-|
24
口口口② |①-②-|
口①③口 |③-④-|
口⑤⑤④ |--⑤-|
⑦⑥⑥⑦ |⑥-⑦-|
25
①口口① |①-②-|
③口口④ |--③-|
②③④② |--④-|
口口口口 |----|
26
口③⑤口 |①---|
②①①④ |②-③-|
①③⑤① |④-⑤-|
口⑥⑥口 |--⑥-|
27
口口口口 |--①-|
③②②口 |--②-|
①④⑤① |--③-|
口口口口 |④-⑤-|
28
口①口① |--①-|
口②③口 |----|
口③②口 |--②-|
口口口口 |--③-|
29
②④④② |①-②-|
⑤⑥口⑤ |③-④-|
⑤口⑥⑤ |--⑤-|
①③③① |--⑥-|
30
口①口口 |----|
②口④口 |①-②-|
口③口口 |③-④-|
口口⑤⑤ |--⑤-|
31
口口口口 |--①-|
②①③④ |--②-|
口口口口 |--③-|
口口口口 |--④-|
32
口②口口 |--①-|
口口口口 |----|
口①①口 |----|
口口口口 |--②-|
33
口口口⑤ |①-②-|
口①④口 |③-④-|
口④②口 |--⑤-|
⑤口③口 |----|
34
②⑤口口 |①---|
口①④口 |②---|
口③①口 |③-④-|
口口口② |--⑤-|
35
口口①② |--①-|
口口口口 |--②-|
口口口口 |--③-|
口口③④ |④---|
36
②口口③ |①---|
口①①口 |②-③-|
⑥①①⑥ |④-⑤-|
④口口⑤ |--⑥-|
37
口③④口 |--①-|
①口口① |--②-|
口口口口 |--③-|
口②②口 |④---|
38
③④口② |①---|
口⑤①口 |②---|
口①⑤口 |③-④-|
②口④③ |--⑤-|
39
口口①② |--①-|
口口③④ |②-③-|
⑦口口口 |④-⑤-|
⑤⑥口口 |⑥-⑦-|
40
③口口口 |①---|
口②口口 |--②-|
口①②口 |③---|
口口口③ |----|
41
口口口① |--①-|
②口①口 |--②-|
口②口③ |--③-|
口口③口 |----|
42
②⑤口口 |①---|
口①④口 |②---|
口③①口 |③-④-|
口口口② |--⑤-|
43
口口①② |--①-|
口口口口 |--②-|
口口口口 |--③-|
口口③④ |④---|
44
②口口③ |①---|
口口①口 |②-③-|
⑥①口⑥ |④-⑤-|
④口口⑤ |--⑥-|
45
口③④口 |--①-|
①口口① |--②-|
口口口口 |--③-|
口②②口 |④---|
46
③④口② |①---|
口⑤①口 |②---|
口①⑤口 |③-④-|
②口④③ |--⑤-|
47
口口①② |--①-|
口口③④ |②-③-|
⑦口口口 |④-⑤-|
⑤⑥口口 |⑥-⑦-|
48
③口口口 |①---|
口②口口 |--②-|
口①②口 |③---|
口口口③ |----|
49
口口口③ |--①-|
口口①② |--②-|
②①口口 |--③-|
③口口口 |----|
50
③④口口 |①---|
②①口口 |②---|
口口①② |③---|
口口④③ |④---|
51
③④口口 |①---|
②①口口 |②---|
口口①② |③---|
口口④③ |④---|
52
③④口口 |①---|
②①口口 |②---|
口口①② |③---|
口口④③ |④---|
53
口口口⑤ |①-②-|
口②④口 |③-④-|
口③①口 |--⑤-|
⑤口口口 |----|
54
②⑤口口 |①---|
口①④口 |②---|
口③①口 |③-④-|
口口口② |--⑤-|
55
口口①② |--①-|
口口口口 |--②-|
口口口口 |--③-|
口口③④ |④---|
56
②口口③ |①---|
口①①口 |②-③-|
⑥①①⑥ |④-⑤-|
④口口⑤ |--⑥-|
57
口③④口 |--①-|
①口口① |--②-|
口口口口 |--③-|
口②②口 |④---|
58
③④口② |①---|
口⑤①口 |②---|
口①⑤口 |③-④-|
②口④③ |--⑤-|
59
口口①② |--①-|
口口③④ |②-③-|
⑦口口口 |④-⑤-|
⑤⑥口口 |⑥-⑦-|
60
③口口口 |①---|
口②口口 |--②-|
口①②口 |③---|
口口口③ |----|
61
口口口① |--①-|
②口①口 |--②-|
口②口③ |--③-|
口口③口 |----|
62
②⑤口口 |①---|
口①④口 |②---|
口③①口 |③-④-|
口口口② |--⑤-|
63
口口①② |--①-|
口口口口 |--②-|
口口口口 |--③-|
口口③④ |④---|
64
②口口③ |①---|
口口①口 |②-③-|
⑥①口⑥ |④-⑤-|
④口口⑤ |--⑥-|
65
口③④口 |--①-|
①口口① |--②-|
口口口口 |--③-|
口②②口 |④---|
66
③④口② |①---|
口⑤①口 |②---|
口①⑤口 |③-④-|
②口④③ |--⑤-|
67
口口①② |--①-|
口口③④ |②-③-|
⑦口口口 |④-⑤-|
⑤⑥口口 |⑥-⑦-|
68
③口口口 |①---|
口②口口 |--②-|
口①②口 |③---|
口口口③ |----|
69
口⑤③口 |--①-|
口②①口 |--②-|
口①②口 |③④-⑤|
④⑦⑧⑥ |⑥-⑦⑧|
70
①口②② |①---|
③口口口 |②-③④|
①口口④ |--⑤-|
口⑤⑥⑦ |⑥-⑦-|
71
口口③口 |①-②-|
④口口① |③-④-|
口②口口
口口口口

口⑥口口
口⑧口⑦
口口⑤口 |⑤-⑥-|
口口口口 |⑦-⑧-|
72
①口口② |①②-③|
⑤口口⑥ |④-⑤⑥|
口⑦⑧⑨ |--⑦-|
③口口④ |⑧-⑨-|
73
①口口② |①②-③|
⑤⑥⑦口 |④-⑤-|
口口⑧⑨ |⑥-⑦-|
③口口④ |⑧-⑨-|
74
①口口② |①②-③|
⑤口口⑥ |④-⑤⑥|
口⑦⑧⑨ |--⑦-|
③口口④ |⑧-⑨-|
75
口②口口 |①-②-|
⑤⑦口③ |③-④-|
①口⑥⑧ |⑤-⑥-|
口口④口 |⑦-⑧-|
76
①口口② |①②-③|
⑤口口⑥ |④-⑤⑥|
口⑦⑧⑨ |--⑦-|
③口口④ |⑧-⑨-|
77
口①①口 |①--②|
②⑤⑥② |--③-|
④⑥⑤④ |-④--|
口③③口 |⑤-⑥-|
78
口口口① |①---|
口口口口 |----|
口口口口 |----|
①口口口 |----|


不确定度: 0

タグ:

+ タグ編集
  • タグ:

このサイトはreCAPTCHAによって保護されており、Googleの プライバシーポリシー利用規約 が適用されます。

最終更新:2012年11月10日 14:05