STELLAR WIND
L.E.D.

BASIC

Level: 6
BPM: 160
Notes: 415

1
口口口口 |----|
口口口口 |----|
口口口口 |----|
口口口口 |----|
2
口口口口 |①-②-|
口①②口 |----|
口①②口 |----|
口口口口 |----|
3
①口口口 |①---|
口口口口 |----|
口口口口 |----|
口口口口 |----|
4
口口口① |----|
口口口口 |----|
口口口口 |①---|
口口口口 |----|
5
口口口口 |①---|
口口①口 |----|
口口口口 |----|
口口口口 |----|
6
口口口口 |①---|
①②口口 |----|
口口口口 |②---|
口口口口 |----|
7
口口口口 |①---|
口口口口 |----|
口口①口 |----|
口口口口 |----|
8
口口口口 |----|
口口口口 |----|
口口口① |①---|
口口口口 |----|
9
口口口口 |①---|
口口口口 |----|
口口①口 |----|
口口口口 |----|
10
①口③口 |①--②|
口②口④ |--③-|
口口⑥⑤ |-④--|
口口口口 |⑤-⑥-|
11
口③口⑤ |①--②|
②口④⑥ |--③-|
口①口口 |-④--|
口口口口 |⑤-⑥-|
12
口口口口 |①--②|
口⑤口口 |--③-|
④③⑥① |④--⑤|
口口②口 |--⑥-|
13
口⑤⑥口 |①--②|
④口②口 |--③-|
口③口① |-④--|
口口口口 |⑤-⑥-|
14
口口口① |①--②|
口⑥②口 |--③-|
口⑤口③ |-④--|
口口④口 |⑤-⑥-|
15
口①口口 |①--②|
口⑥②口 |--③-|
口⑤口③ |-④--|
口口④口 |⑤-⑥-|
16
口①口③ |①--②|
口⑥②④ |--③-|
口口⑤口 |④--⑤|
口口口口 |--⑥-|
17
口口口口 |①--②|
①口③口 |--③-|
口②口④ |-④--|
口⑥⑤口 |⑤-⑥-|
18
口口口口 |①--②|
口⑥③④ |--③-|
口②⑤口 |④--⑤|
①口口口 |--⑥-|
19
口②口口 |①--②|
①口③口 |--③-|
口口口④ |-④--|
口⑥⑤口 |⑤-⑥-|
20
口④口口 |①--②|
③口⑤口 |--③-|
口②⑥口 |-④--|
①口口口 |⑤-⑥-|
21
④口⑥口 |①--②|
③⑤口口 |--③-|
口②口口 |④--⑤|
口口①口 |--⑥-|
22
口口口① |①--②|
口口②口 |--③-|
口口⑤③ |④--⑤|
口⑥口④ |--⑥-|
23
口④口口 |①--②|
③口⑤口 |--③-|
口②⑥口 |-④--|
①口口口 |⑤-⑥-|
24
口④口口 |①--②|
③口⑤口 |--③-|
口②⑥口 |-④--|
口口①口 |⑤-⑥-|
25
④口⑥口 |①--②|
③⑤口口 |--③-|
口②口口 |④--⑤|
口口①口 |--⑥-|
26
口口口① |①--②|
口口②口 |--③-|
口口⑤③ |④--⑤|
口⑥口④ |--⑥-|
27
口④口口 |①--②|
③口⑤口 |--③-|
口②⑥口 |-④--|
①口口口 |⑤-⑥-|
28
口④口口 |①--②|
③口⑤口 |--③-|
口②⑥口 |-④--|
口口①口 |⑤-⑥-|
29
④口⑥口 |①--②|
③⑤口口 |--③-|
口②口口 |④--⑤|
口口①口 |--⑥-|
30
口口口① |①--②|
口口②口 |--③-|
口口⑤③ |④--⑤|
口⑥口④ |--⑥-|
31
口④口口 |①--②|
③口⑤口 |--③-|
口②⑥口 |-④--|
①口口口 |⑤-⑥-|
32
口④口口 |①--②|
③口⑤口 |--③-|
口②⑥口 |-④--|
口口①口 |⑤-⑥-|
33
④口⑥口 |①--②|
③⑤口口 |--③-|
口②口口 |④--⑤|
口口①口 |--⑥-|
34
口口口① |①--②|
口口②口 |--③-|
口口⑤③ |④--⑤|
口⑥口④ |--⑥-|
35
④⑤⑥口 |①--②|
③口口口 |--③-|
②口口口 |-④--|
①口口口 |⑤--⑥|
36
口口口① |--①-|
口口口② |-②--|
口口口③ |③--④|
口口⑤④ |--⑤-|
37
④⑤⑥口 |①--②|
③口口口 |--③-|
②口口口 |-④--|
①口口口 |⑤--⑥|
38
口口口① |--①-|
口口口② |-②--|
口口口③ |③--④|
口口⑤④ |--⑤-|
39
④⑤⑥口 |①--②|
③口口口 |--③-|
②口口口 |-④--|
①口口口 |⑤--⑥|
40
口口口① |--①-|
口口口② |-②--|
口口口③ |③--④|
口口⑤④ |--⑤-|
41
④⑤⑥口 |①--②|
③口口口 |--③-|
②口口口 |-④--|
①口口口 |⑤--⑥|
42
口口口① |--①-|
口口口② |-②--|
口口口③ |③--④|
口口⑤④ |--⑤-|
43
①①②口 |①---|
口③④口 |②---|
口口口口 |③---|
口口口口 |④---|
44
口口口口 |①---|
口口口口 |②---|
口①②口 |③---|
口③④口 |④---|
45
口①②口 |①---|
口③④口 |②---|
口口口口 |③---|
口口口口 |④---|
46
口口口口 |①---|
口口口口 |②---|
口①②口 |③---|
口③④口 |④---|
47
口①②口 |①-②-|
口③④口 |③-④-|
口⑤⑥口 |⑤-⑥-|
口⑦⑧⑧ |⑦-⑧-|
48
①①②口 |①-②-|
口③④口 |③-④-|
口⑤⑥口 |⑤-⑥-|
口⑦⑧⑧ |⑦-⑧-|
49
①①②口 |①-②-|
口③④④ |③-④-|
⑤⑤⑥口 |⑤-⑥-|
口⑦⑧口 |⑦-⑧-|
50
⑧口口⑦ |①-②-|
⑥口口⑤ |③-④-|
④口口③ |⑤-⑥-|
②口口① |⑦-⑧-|
51
口口口口 |----|
口口口口 |----|
口口口口 |----|
口口口口 |----|
52
口①口口 |①--②|
口口口口 |--③-|
②口口口
口口③口

口⑤口口
口口口④
⑥口口口 |-④--|
口口口口 |⑤--⑥|
53
口口口口 |--①-|
口口口② |-②--|
口口口口
口口①口

口③口口
口口口口
④口口口 |③--④|
口口⑤口 |--⑤-|
54
口口③口 |①--②|
②口口口 |--③-|
口口口口
口①口口

口口口口
⑥口口口
口口口④ |-④--|
口⑤口口 |⑤--⑥|
55
口口①口 |--①-|
口口口口 |-②--|
口口口②
口口口口

口口⑤口
④口口口
口口口口 |③--④|
口③口口 |--⑤-|
56
口①口口 |①--②|
口口口口 |--③-|
②口口口
口口③口

口⑤口口
口口口④
⑥口口口 |-④--|
口口口口 |⑤--⑥|
57
口口口口 |--①-|
口口口② |-②--|
口口口口
口口①口

口③口口
口口口口
④口口口 |③--④|
口口⑤口 |--⑤-|
58
口口③口 |①--②|
②口口口 |--③-|
口口口口
口①口口

口口口口
⑥口口口
口口口④ |-④--|
口⑤口口 |⑤--⑥|
59
口口①口 |--①-|
口口口口 |-②--|
口口口②
口口口口

口口⑤口
④口口口
口口口口 |③--④|
口③口口 |--⑤-|
60
口①口口 |①--②|
口口口口 |--③-|
②口口口
口口③口

口⑤口口
口口口④
⑥口口口 |-④--|
口口口口 |⑤--⑥|
61
口口口口 |--①-|
口口口② |-②--|
口口口口
口口①口

口③口口
口口口口
④口口口 |③--④|
口口⑤口 |--⑤-|
62
口口③口 |①--②|
②口口口 |--③-|
口口口口
口①口口

口口口口
⑥口口口
口口口④ |-④--|
口⑤口口 |⑤--⑥|
63
口口①口 |--①-|
口口口口 |-②--|
口口口②
口口口口

口口⑤口
④口口口
口口口口 |③--④|
口③口口 |--⑤-|
64
口①口口 |①--②|
口口口口 |--③-|
②口口口
口口③口

口⑤口口
口口口④
⑥口口口 |-④--|
口口口口 |⑤--⑥|
65
口口口口 |--①-|
口口口② |-②--|
口口口口
口口①口

口③口口
口口口口
④口口口 |③--④|
口口⑤口 |--⑤-|
66
口口③口 |①--②|
②口口口 |--③-|
口口口口
口①口口

口口口口
⑥口口口
口口口④ |-④--|
口⑤口口 |⑤--⑥|
67
口口①口 |--①-|
口口口口 |-②--|
口口口②
口口口口

口口⑤口
④口口口
口口口口 |③--④|
口③口口 |--⑤-|
68
口口口口 |①-②-|
口①④口 |③-④-|
口口②口
口口口③

口口口口
口⑦口口
口⑤⑧口 |⑤-⑥-|
⑥口口口 |⑦-⑧-|
69
口口口口 |①--②|
口⑤②口 |--③-|
④口口⑥ |④-⑤-|
口③口① |-⑥--|
70
口口口口 |①-②-|
口④①口 |③-④-|
口②口口
③口口口

口口口口
口口⑦口
口⑧⑤口 |⑤-⑥-|
口口口⑥ |⑦-⑧-|
71
口口口口 |①--②|
口②⑤口 |--③-|
⑥口口④ |④-⑤-|
①口③口 |-⑥--|
72
口口口口 |①-②-|
口①④口 |③-④-|
口口②口
口口口③

口口口口
口⑦口口
口⑤⑧口 |⑤-⑥-|
⑥口口口 |⑦-⑧-|
73
口口口口 |①--②|
口⑤②口 |--③-|
④口口⑥ |④-⑤-|
口③口① |-⑥--|
74
口口口口 |①-②-|
口④①口 |③-④-|
口②口口
③口口口

口口口口
口口⑦口
口⑧⑤口 |⑤-⑥-|
口口口⑥ |⑦-⑧-|
75
⑥⑩⑩口 |①②-③|
⑤口⑧④ |④-⑤⑥|
②口⑦③ |-⑦⑧-|
①⑨⑨口 |⑨-⑩-|
76
口口口口 |①---|
口口口口 |----|
①口口① |----|
①口口① |----|


不确定度: 0

タグ:

+ タグ編集
  • タグ:

このサイトはreCAPTCHAによって保護されており、Googleの プライバシーポリシー利用規約 が適用されます。

最終更新:2012年11月10日 14:03