さよならトリップ
Dormir

ADVANCED

Level: 7
BPM: 133
Notes: 528

1
口口口口 |----|
口口口口 |----|
口口口口 |----|
口口口口 |----|
2
⑤口④口 |①-②-|
③③⑥⑥ |③-④-|
⑦口②口 |⑤-⑥-|
口①⑧⑧ |⑦-⑧-|
3
⑤口④④ |①-②-|
口③⑥⑥ |③-④-|
⑦⑦②口 |⑤-⑥-|
①①口⑧ |⑦-⑧-|
4
⑤口④口 |①-②-|
③③⑥⑥ |③-④-|
⑦口②口 |⑤-⑥-|
①①口⑧ |⑦-⑧-|
5
⑤口④④ |①-②-|
口③口⑥ |③-④-|
⑦⑦②口 |⑤-⑥-|
①①口⑧ |⑦-⑧-|
6
⑤口④口 |①-②-|
③③⑥⑥ |③-④-|
⑦口②口 |⑤-⑥-|
①①⑧⑧ |⑦-⑧-|
7
⑤口④④ |①-②-|
口③⑥⑥ |③-④-|
⑦⑦②口 |⑤-⑥-|
①①口⑧ |⑦-⑧-|
8
⑤口④口 |①-②-|
③③⑥⑥ |③-④-|
⑦口②口 |⑤-⑥-|
①①口⑧ |⑦-⑧-|
9
⑤口④④ |①-②-|
口③口⑥ |③-④-|
⑦⑦②⑧ |⑤-⑥-|
①①口⑧ |⑦-⑧-|
10
②口③③ |①---|
②口口口 |--②-|
口口④口 |③---|
①①④口 |--④-|
11
①①③③ |①---|
口口口口 |--②-|
④②口口 |③---|
口②口口 |--④-|
12
口口口口 |①---|
口⑤④口 |②-③-|
口②③① |④-⑤-|
⑥⑥口口 |--⑥-|
13
口口口③ |①-②-|
口口②② |③---|
④①①口 |----|
④口口口 |--④-|
14
③③口② |①---|
口口口② |--②-|
口④口口 |③---|
口④①① |--④-|
15
③③①① |①---|
口④口口 |--②-|
口口②口 |③---|
口口②口 |--④-|
16
口口⑤④ |①---|
口口①口 |②-③-|
口②口口 |----|
④⑤③口 |④-⑤-|
17
②①口口 |①-②-|
③口口④ |③-④-|
④口口③
口口①②

⑤⑤口口
口口口口
口口口口 |----|
口口口口 |--⑤-|
18
口口②② |①---|
④④口口 |--②-|
③口口① |③---|
③口口① |--④-|
19
口口口口 |①---|
口口②② |--②-|
④③①口 |③---|
口③①口 |--④-|
20
口口口口 |①---|
口③④口 |②---|
口口口① |③-④-|
口②②口 |----|
21
④⑤口④ |①-②-|
③⑤③口 |③-④-|
②②口口 |----|
①口①口 |--⑤-|
22
口口②口 |①---|
④④②口 |--②-|
③③①① |③---|
口口口口 |--④-|
23
口口口口 |①---|
④口②② |--②-|
口③①口 |③---|
口③①口 |--④-|
24
口⑤⑤口 |①-②-|
口①②口 |--③-|
③②①③ |----|
口④④口 |④-⑤-|
25
①口口① |①-②-|
②口口② |③-④-|
③口口③ |----|
④口口④ |----|
26
口口⑤① |----|
⑥②口口 |①-②-|
口口口③ |③-④-|
口④口口 |⑤-⑥-|
27
口口口口 |①-②-|
口口③口 |③-④-|
口④①口
②口口口

⑨口口⑤
⑩口口⑥
⑪口口⑦ |⑤⑥⑦⑧|
⑫口口⑧ |⑨⑩⑪⑫|
28
⑤①口口 |----|
口口⑥② |①-②-|
口③口口 |③-④-|
口口口④ |⑤-⑥-|
29
口口口口 |①-②-|
口③口口 |③-④-|
①口④口
口口②口

⑤口口⑨
⑥口口⑩
⑦口口⑪ |⑤⑥⑦⑧|
⑧口口⑫ |⑨⑩⑪⑫|
30
口口①⑤ |----|
②⑥口口 |①-②-|
口口③口 |③-④-|
④口口口 |⑤-⑥-|
31
口口口口 |①-②-|
口口③口 |③-④-|
口④口①
口②口口

⑨口口⑤
⑩口口⑥
⑪口口⑦ |⑤⑥⑦⑧|
⑫口口⑧ |⑨⑩⑪⑫|
32
口口口口 |----|
口①①口 |①---|
②④④② |②---|
口③③口 |③-④-|
33
①口口① |①-②-|
②口口② |③-④-|
③口口③ |----|
④口口④ |----|
34
④⑤⑧① |①-②-|
③⑥⑦② |③-④-|
②⑦⑥③ |⑤-⑥-|
①⑧⑤④ |⑦-⑧-|
35
口口口口 |①---|
口②口口 |②-③-|
①口③①
口口口口

④④口口
口口⑤⑤
⑥⑥口口 |④-⑤-|
口口⑦⑦ |⑥-⑦-|
36
口口口口 |①---|
①②②口 |②-③-|
口③口①
口口口口

口口口口
⑦口口口
⑤口④⑥ |④-⑤-|
口口口口 |⑥-⑦-|
37
②③③口 |①-②-|
口口口① |③---|
口口口口 |----|
口口口口 |----|
38
②⑤⑤④ |①-②-|
①口口③ |③-④-|
口⑥⑥⑦ |⑤---|
口口口口 |⑥-⑦-|
39
口口口口 |①-②-|
⑥⑦⑧口 |③-④-|
⑤口口口 |⑤-⑥-|
④③②① |⑦-⑧-|
40
⑦③④⑧ |①-②-|
口口口口 |③-④-|
⑤①②⑥ |⑤-⑥-|
口口口口 |⑦-⑧-|
41
口口口口 |①-②-|
③口口④ |③-④-|
口口口口 |----|
口①②口 |----|
42
⑦②口③ |①---|
⑧口②④ |②---|
⑨口①⑤ |③④⑤⑥|
⑩①口⑥ |⑦⑧⑨⑩|
43
③口②⑦ |①---|
④②口⑧ |②---|
⑤①口⑨ |③④⑤⑥|
⑥口①⑩ |⑦⑧⑨⑩|
44
⑦口口③ |①---|
⑧①②④ |②---|
⑨口口⑤ |③④⑤⑥|
⑩②①⑥ |⑦⑧⑨⑩|
45
③②①⑦ |①---|
④口口⑧ |②---|
⑤①②⑨ |③④⑤⑥|
⑥口口⑩ |⑦⑧⑨⑩|
46
⑦①口③ |①---|
⑧口②④ |②---|
⑨②口⑤ |③④⑤⑥|
⑩口①⑥ |⑦⑧⑨⑩|
47
③口①⑦ |①---|
④②口⑧ |②---|
⑤口②⑨ |③④⑤⑥|
⑥①口⑩ |⑦⑧⑨⑩|
48
⑦口口③ |①---|
⑧②②④ |②---|
⑨口口⑤ |③④⑤⑥|
⑩①①⑥ |⑦⑧⑨⑩|
49
③②②口 |①---|
④口口口 |②---|
⑤①①口 |③④⑤-|
口口⑥⑥ |⑥---|
50
口口口口 |①---|
②③①① |②-③-|
口口口口
口口口口

口口口口
口口⑥⑥
⑤⑤口口 |--④-|
口口④④ |⑤-⑥-|
51
①①③② |①---|
口口口口 |②-③-|
⑤⑥⑥⑤ |--④-|
口④④口 |⑤-⑥-|
52
口口口口 |①---|
②③口口 |②-③-|
口④④口 |----|
①口口① |--④-|
53
①口口① |①-②-|
②口口② |③-④-|
③口口③ |----|
④⑤⑤④ |⑤---|
54
①口口① |①---|
②③口口 |②-③-|
口口口口
口口口口

口⑤⑤口
⑥口口⑥
口④④口 |--④-|
口口口口 |⑤-⑥-|
55
口口③② |①---|
口口口口 |②-③-|
①口口①
口口口口

口口口口
口口⑥⑥
⑤⑤口口 |--④-|
口口④④ |⑤-⑥-|
56
①①口口 |①---|
②③口口 |②-③-|
⑥口口口 |--④-|
④口口⑤ |⑤-⑥-|
57
②口口② |①-②-|
口①①口 |③-④-|
口③③口 |----|
口④④口 |----|
58
口口口口 |①---|
①口①口 |----|
口口口口 |----|
口口口口 |----|
59
口①口口 |①---|
口口口口 |----|
口①口口 |----|
口口口口 |----|
60
①口①口 |①---|
口口口口 |----|
①口①口 |----|
口口口口 |----|


不确定度: 0

タグ:

+ タグ編集
  • タグ:

このサイトはreCAPTCHAによって保護されており、Googleの プライバシーポリシー利用規約 が適用されます。

最終更新:2012年11月10日 13:59