FLOWER
DJ YOSHITAKA

BASIC

Level: 6
BPM: 173
Notes: 477

1
口口口口 |----|
口口口口 |----|
口口口口 |----|
口口口口 |----|
2
⑤口②口 |①---|
①口④③ |②---|
⑤口②口 |③-④-|
口口口口 |⑤---|
3
口口口口 |①---|
②口口② |----|
口口口口 |②---|
口①①口 |----|
4
口①①口 |①---|
口③④口 |②-③-|
口②⑤口 |④-⑤-|
口⑦⑥口 |⑥-⑦-|
5
①口口① |①---|
口口口口 |----|
口口口口 |----|
口口口口 |----|
6
口口口口 |①---|
①①①① |----|
口口口口 |----|
口口口口 |----|
7
口口口口 |----|
口口口口 |----|
口口口口 |----|
口口口口 |----|
8
口口口口 |----|
口口口口 |----|
口口口口 |----|
口口口口 |----|
9
口口口口 |----|
口口口口 |----|
口口口口 |----|
口口口口 |----|
10
口口口口 |①---|
①口口② |--②-|
口口口口 |----|
口口口口 |----|
11
口口口口 |----|
口口口口 |----|
口口口口 |----|
口口口口 |----|
12
口口口口 |①---|
口口口③ |----|
口①①口 |--②-|
口③口② |--③-|
13
③口②口 |--①-|
口④口口 |--②-|
②口①口 |--③-|
口口口口 |--④-|
14
口口②口 |--①-|
口⑤口口 |-②--|
①口④口 |③--④|
口口口③ |--⑤-|
15
口①口口 |--①-|
口口⑤口 |-②--|
口④口② |③--④|
③口口口 |--⑤-|
16
③口口口 |--①-|
口④口① |-②--|
口口⑤口 |③--④|
口②口口 |--⑤-|
17
口口口④ |①---|
②口⑤口 |②-③-|
口⑥口口 |④--⑤|
①口③口 |--⑥-|
18
口口②口 |--①-|
口⑤口口 |-②--|
①口④口 |③--④|
口口口③ |--⑤-|
19
口①口口 |--①-|
口口⑤口 |-②--|
口④口② |③--④|
③口口口 |--⑤-|
20
③口口口 |--①-|
口④口① |-②--|
口口⑤口 |③--④|
口②口口 |--⑤-|
21
口口口④ |①---|
②口⑤口 |②-③-|
口⑥口口 |④--⑤|
①口③口 |--⑥-|
22
①口口口 |①---|
口口口② |②---|
①口口口 |----|
口口口② |----|
23
口口口② |①---|
①口口口 |②---|
口口口② |----|
①口口口 |----|
24
口①口口 |①---|
口口②口 |②---|
口①口口 |----|
口口②口 |----|
25
口口①口 |①---|
③①②口 |----|
口②①③ |②---|
口①口口 |③---|
26
①口口口 |①---|
口口口② |②---|
①口口口 |----|
口口口② |----|
27
口口口② |①---|
①口口口 |②---|
口口口② |----|
①口口口 |----|
28
口①口口 |①---|
口口②口 |②---|
口①口口 |----|
口口②口 |----|
29
口口①口 |①---|
口①口口 |----|
口口①口
口①口口

口口③口
口口②口
口②口口 |②---|
口③口口 |③---|
30
①口口口 |①---|
口口口② |②---|
①口口口 |----|
口口口② |----|
31
口口口② |①---|
①口口口 |②---|
口口口② |----|
①口口口 |----|
32
口①口口 |①---|
口口②口 |②---|
口①口口 |----|
口口②口 |----|
33
口口①口 |①---|
③①②口 |----|
口②①③ |②---|
口①口口 |③---|
34
②口①口 |①---|
口①口② |----|
②口①口 |②---|
口①口② |----|
35
②口①口 |①---|
口①口② |----|
②口①口 |②---|
口①口② |----|
36
⑤口口口 |①-②-|
③①口⑤ |--③-|
⑤口②④ |④---|
口口口⑤ |⑤---|
37
口口口⑥ |①--②|
⑥①②口 |--③-|
口③④⑤ |-④--|
⑤口口口 |⑤-⑥-|
38
①口口口 |①---|
口③口② |②---|
①口④口 |③---|
口口口② |④---|
39
口口口② |①---|
①③口口 |②---|
口口④② |③---|
①口口口 |④---|
40
口①口口 |①---|
③口②口 |②---|
口①口④ |③---|
口口②口 |④---|
41
口口②③ |①--②|
④①④口 |--③-|
口④①④ |④---|
③②口口 |----|
42
①口口口 |①---|
口③口② |②---|
①口④口 |③---|
口口口② |④---|
43
口口口② |①---|
①③口口 |②---|
口口④② |③---|
①口口口 |④---|
44
口①口口 |①---|
③口②口 |②---|
口①口④ |③---|
口口②口 |④---|
45
口口②③ |①--②|
④①④口 |--③-|
口④①④ |④---|
③②口口 |----|
46
①口口口 |①---|
口③口② |②---|
①口④口 |③---|
口口口② |④---|
47
口口口② |①---|
①③口口 |②---|
口口④② |③---|
①口口口 |④---|
48
口①口口 |①---|
③口②口 |②---|
口①口④ |③---|
口口②口 |④---|
49
口口②③ |①--②|
⑤①④口 |--③-|
口④①⑤ |④---|
③②口口 |⑤---|
50
①口④口 |①---|
口③口② |②---|
①口④口 |③---|
口③口② |④---|
51
口口④② |①---|
①③口口 |②---|
口口④② |③---|
①③口口 |④---|
52
③①口口 |①---|
口口②④ |②---|
③①口口 |③---|
口口②④ |④---|
53
口口②③ |①--②|
④①⑥口 |--③-|
口⑤①⑦ |④-⑤-|
③②口口 |⑥-⑦-|
54
口口口⑥ |①--②|
⑥①④口 |--③-|
口③②⑤ |-④--|
⑤口口口 |⑤-⑥-|
55
口②②口 |①---|
口口口口 |----|
口口口口 |②---|
口①①口 |----|
56
口口口⑥ |①--②|
⑥①④口 |--③-|
口③②⑤ |-④--|
⑤口口口 |⑤-⑥-|
57
口②②口 |①---|
口口口口 |----|
口口口口 |②---|
口①①口 |----|
58
口口口⑥ |①--②|
⑥①④口 |--③-|
口③②⑤ |-④--|
⑤口口口 |⑤-⑥-|
59
口②②口 |①---|
口口口口 |----|
口口口口 |②---|
口①①口 |----|
60
口口口⑥ |①--②|
⑥①④口 |--③-|
口③②⑤ |-④--|
⑤口口口 |⑤-⑥-|
61
口②②口 |①---|
口口口口 |----|
口口口口 |②---|
口①①口 |----|
62
口口口口 |①---|
口①①口 |----|
口①①口 |----|
口口口口 |----|
63
口口口口 |----|
口口口口 |----|
口口口口 |----|
口口口口 |----|
64
口口口口 |①---|
①口口① |----|
①口口① |----|
口口口口 |----|
65
口口口口 |----|
口口口口 |----|
口口口口 |----|
口口口口 |----|
66
口口口口 |----|
口口口口 |----|
口口口口 |----|
口口口口 |----|
67
口口口口 |----|
口口口口 |----|
口口口口 |----|
口口口口 |----|
68
①口口口 |①---|
口口口口 |----|
口口口口 |----|
口口口口 |----|
69
口口口口 |①---|
口口口口 |----|
口口口口 |----|
口口口① |----|
70
口口口① |①---|
口口口口 |----|
口口口口 |②---|
②口口口 |----|
71
口口口⑥ |①--②|
⑥①②口 |--③-|
口③④⑤ |-④--|
⑤口口口 |⑤-⑥-|
72
①口④口 |①---|
口③口② |②---|
①口④口 |③---|
口③口② |④---|
73
口口④② |①---|
①③口口 |②---|
口口④② |③---|
①③口口 |④---|
74
③①口口 |①---|
口口②④ |②---|
③①口口 |③---|
口口②④ |④---|
75
口口②③ |①--②|
④①⑥口 |--③-|
口⑤①⑦ |④-⑤-|
③②口口 |⑥-⑦-|
76
①口④口 |①---|
口③口② |②---|
①口④口 |③---|
口③口② |④---|
77
口口④② |①---|
①③口口 |②---|
口口④② |③---|
①③口口 |④---|
78
③①口口 |①---|
口口②④ |②---|
③①口口 |③---|
口口②④ |④---|
79
口口②③ |①--②|
④①⑥口 |--③-|
口⑤①⑦ |④-⑤-|
③②口口 |⑥-⑦-|
80
口口口⑥ |①--②|
⑥①④口 |--③-|
口③②⑤ |-④--|
⑤口口口 |⑤-⑥-|
81
口②②口 |①---|
口口口口 |----|
口口口口 |②---|
口①①口 |----|
82
口口口⑥ |①--②|
⑥①④口 |--③-|
口③②⑤ |-④--|
⑤口口口 |⑤-⑥-|
83
口②②口 |①---|
口口口口 |----|
口口口口 |②---|
口①①口 |----|
84
口口口⑥ |①--②|
⑥①④口 |--③-|
口③②⑤ |-④--|
⑤口口口 |⑤-⑥-|
85
口②②口 |①---|
口口口口 |----|
口口口口 |②---|
口①①口 |----|
86
口口口⑥ |①--②|
⑥①④口 |--③-|
口③②⑤ |-④--|
⑤口口口 |⑤-⑥-|
87
④口口④ |①---|
口③③口 |②---|
口②②口 |③--④|
口①①口 |----|


不确定度: 0

タグ:

+ タグ編集
  • タグ:

このサイトはreCAPTCHAによって保護されており、Googleの プライバシーポリシー利用規約 が適用されます。

最終更新:2012年11月10日 13:46