猛烈宇宙交響曲・第七楽章「無限の愛」
ももいろクローバーZ

EXTREME

Level: 8
BPM: 174
Notes: 501

1
口口口口 |----|
口②①口 |----|
口④③口 |①-②-③-|
口⑥⑤口 |④-⑤-⑥-|
2
口③②① |①-②-③-|
④⑤⑥① |④-⑤-⑥-|
⑩⑪⑫⑦ |⑦-⑧-⑨-|
口⑨⑧⑦ |⑩-⑪-⑫-|
3
口③②① |①-②-③-|
④⑤⑥① |④-⑤-⑥-|
⑩⑪⑫⑦ |⑦-⑧-⑨-|
口⑨⑧⑦ |⑩-⑪-⑫-|
4
口③②① |①-②-③-|
④⑤⑥① |④-⑤-⑥-|
⑩⑪⑫口 |⑦-⑧-⑨-|
口⑨⑧⑦ |⑩-⑪-⑫-|
5
②①①② |①---|
口②②口 |----|
口口口口 |②---|
口口口口 |----|
6
口⑫⑪⑩ |①-②-③-|
⑦⑧⑨口 |④-⑤-⑥-|
口⑥⑤④ |⑦-⑧-⑨-|
①②③口 |⑩-⑪-⑫-|
7
④⑨⑧⑦ |①-②-③-|
⑤口口③ |④-⑤-⑥-|
⑥口口② |⑦-⑧-⑨-|
⑩⑪⑫① |⑩-⑪-⑫-|
8
口⑨⑧⑦ |①-②-③-|
④⑤⑥口 |④-⑤-⑥-|
口③②① |⑦-⑧-⑨-|
⑩⑪⑫口 |⑩-⑪-⑫-|
9
①⑦⑦口 |①-②-③-|
②口口⑥ |④-⑤-⑥-|
③口口⑤ |⑦---|
口口口④ |----|
10
②口口② |①---|
口③③口 |②---|
④①①④ |③---|
口口③① |④---|
11
口①①口 |①---|
②④④② |②---|
⑤③③口 |③---|
口口③① |④---⑤-|
12
③口口口 |①---|
口口④口 |②---|
⑤②②① |③-④⑤|
⑦⑥③① |⑥---⑦-|
13
口③③口 |①---|
②口口口 |②---|
口④口① |③---|
口口③① |④---|
14
口口口口 |①---|
④①①④ |②---|
②③③② |③---|
①③口口 |④---|
15
口⑦①口 |①-②③|
口②口⑧ |④---⑤-|
口⑥⑤③ |⑥---|
①⑥④口 |⑦---⑧-|
16
④⑥口口 |①---|
口②②口 |②---|
①口⑤口 |③---④-|
①③⑤口 |⑤---⑥-|
17
④口口⑤ |①---|
口②③⑥ |②-③-④-|
口口口① |⑤---|
口口口① |⑥---|
18
口口口口 |①---|
①口口④ |②---③-|
口③⑦口 |④---⑤-|
②口⑤⑥ |⑥---⑦-|
19
①口口⑤ |①---②-|
②③⑦⑥ |③---④-|
口口口口 |⑤---⑥-|
④口口⑧ |⑦---⑧-|
20
口口口口 |①-②-③-|
①②⑦⑥ |④---⑤-|
③④⑨⑧ |⑥-⑦-⑧-|
⑤口口⑩ |⑨---⑩-|
21
①②③口 |①---②-|
④⑥口口 |③---④-|
口口⑦⑤ |⑤---⑥-|
口⑧口口 |⑦---⑧-|
22
①口口⑤ |①---②-|
口口口口 |③---④-|
②③⑦⑥ |⑤---⑥-|
④口口⑧ |⑦---⑧-|
23
①口口⑥ |①-②-③-|
⑤②口⑨ |④---⑤-|
③口口⑦ |⑥---⑦-|
口④⑧口 |⑧---⑨-|
24
⑤口④⑤ |①---|
口③③口 |②---|
口②②口 |③---④-|
①口口① |⑤---|
25
口①口口 |①---②-|
②口口口 |③---④-|
④口口③ |⑤---|
口口口⑤ |----|
26
口口③口 |①---|
口④口口 |----|
口②口口 |②-③-|
口①口口 |④---|
27
③口口口 |①---|
口口①② |②---|
口口口口 |③---|
口口口口 |----|
28
口①口口 |①-②-|
口口口口 |③---|
④口口② |----|
口③口口 |④---|
29
④⑤口① |①-②-|
⑥①②口 |③---|
口③口口 |④-⑤-|
口口口口 |⑥---|
30
口口口① |①-②-|
口口口② |③-④-|
④口口⑦ |⑤-⑥-|
③口⑥⑤ |⑦---|
31
①①①① |①---|
①②②① |--②-|
口②②口 |----|
口口口口 |----|
32
②④③口 |①---|
⑤口⑤① |--②-|
③④②口 |--③-|
口①口口 |④-⑤-|
33
口口口① |--①-|
口①口口 |----|
②口③口 |②---|
③口②口 |③---|
34
口口①口 |①---|
口②③⑥ |②-③-|
⑤口口口 |--④-|
口口④口 |⑤-⑥-|
35
口口口③ |----|
口口②口 |①---|
口①口口 |②---|
口口口口 |③---|
36
口口口口 |①---|
①③④② |--②-|
口⑤①⑤ |--③-|
口②④③ |④-⑤-|
37
②③口口 |----|
④口口口 |①---|
口口口④ |②--③|
①③口② |--④-|
38
口口口① |①---|
口口⑤口 |--②-|
②④口口 |--③-|
①口③口 |④-⑤-|
39
①②③口 |--①-|
口口口口 |----|
口口口口 |②---|
①②③口 |③---|
40
口口口① |①---|
口口口口 |----|
口口②口 |②---|
口③口① |--③-|
41
口③②① |--①-|
口口口口 |----|
口口口口 |②---|
口③②① |③---|
42
①口口口 |①---|
口②口口 |----|
口口③口 |②---|
①口口口 |--③-|
43
①②③口 |--①-|
口⑥⑤④ |②-③-|
口⑦口口 |④-⑤-|
口口⑦口 |⑥-⑦-|
44
⑤③③⑤ |①---|
口④④口 |②-③-|
口口①口 |--④-|
②①口② |--⑤-|
45
口口口口 |----|
④口口③ |①---|
③①①④ |②---|
口②②口 |③-④-|
46
②③③② |--①-|
口口口口 |②---|
口①①口 |----|
口口口口 |--③-|
47
②口口① |--①-|
②口③① |②-③-|
口口③口
口口口口

口口口⑦
口④口⑦
⑥④口⑤ |④-⑤-|
⑥口口⑤ |⑥-⑦-|
48
口①①口 |①---|
口②②口 |----|
口②②口 |----|
口①①口 |--②-|
49
①口口① |----|
①口口① |----|
口口口口 |----|
口口口口 |①---|
50
口①①口 |①---|
口⑥口口 |②-③-|
②口⑤③ |--④-|
口④口口 |⑤-⑥-|
51
口口口③ |----|
口口②口 |①---|
口①口口 |②---|
口口口口 |③---|
52
①口口口 |①---|
口③④② |--②-|
口⑤①⑤ |--③-|
口②④③ |④-⑤-|
53
口口③② |----|
口口口④ |①---|
④口口口 |②--③|
②①③口 |--④-|
54
①口口口 |①---|
⑤②②口 |--②-|
口④口口 |--③-|
口口③① |④-⑤-|
55
口③②① |--①-|
口口口口 |----|
口口口口 |②---|
口③②① |③---|
56
①口口口 |①---|
口②口口 |----|
口口③口 |②---|
①口口口 |--③-|
57
①②③口 |--①-|
口口口口 |----|
口口口口 |②---|
①②③口 |③---|
58
口口②① |①---|
口口口口 |----|
口③口口 |②---|
口口口① |--③-|
59
口③②① |--①-|
④⑤⑥⑦ |②-③-|
口口口口 |④-⑤-|
口口口口 |⑥-⑦-|
60
②⑤⑤② |①---|
④口口口 |②-③-|
④口口口 |--④-|
③①①③ |--⑤-|
61
④口口④ |----|
口口口① |①---|
口③③① |②---|
②口口② |③-④-|
62
口口口口 |--①-|
①口口② |②---|
①口口② |----|
口口口口 |----|
63
①①①① |①---|
②③③② |----|
②③③② |②---|
口口口口 |--③-|
64
①①③③ |----|
口口③口 |----|
口③口口 |①-②-|
③③②② |--③-|

不確定度: 0

タグ:

+ タグ編集
  • タグ:

このサイトはreCAPTCHAによって保護されており、Googleの プライバシーポリシー利用規約 が適用されます。

最終更新:2014年08月01日 02:44