THIS NIGHT (jubeat EDITION)
TЁЯRA

EXTREME

Level: 9
BPM: 160
Notes: 719

1
口①①口 |----|
口口口口 |----|
口口口口 |----|
口口口口 |①---|
2
⑧⑦⑦④ |①-②-|
⑥口口② |③-④-|
⑦①①③ |⑤-⑥-|
⑤口口口 |⑦-⑧-|
3
⑧口口④ |①-②-|
⑥口①② |③-④-|
⑦口③③ |⑤-⑥-|
⑤⑤⑦① |⑦-⑧-|
4
⑥口口② |①-②-|
⑦口口③ |③-④-|
⑧①①④ |⑤-⑥-|
⑤④⑦① |⑦-⑧-|
5
⑦⑦⑤② |①-②-|
⑥①①③ |③-④-|
⑧口口④ |⑤-⑥-|
⑤口口① |⑦-⑧-|
6
⑧⑦⑤④ |①-②-|
⑥口口② |③-④-|
⑦①①③ |⑤-⑥-|
⑤口口① |⑦-⑧-|
7
⑧口口④ |①-②-|
⑥①口② |③-④-|
⑦③⑦③ |⑤-⑥-|
⑤⑤口① |⑦-⑧-|
8
⑥口⑦② |①-②-|
⑦①④③ |③-④-|
⑧口口④ |⑤-⑥-|
⑤口口① |⑦-⑧-|
9
口①口② |①-②-|
口口口③ |③-④-|
口口口④
口口口①

⑦⑦⑤口
⑥口口口
⑧口口口 |⑤-⑥-|
⑤口口口 |⑦-⑧-|
10
⑧口口④ |①-②-|
⑥口⑦② |③-④-|
⑦①①③ |⑤-⑥-|
⑤口口① |⑦-⑧-|
11
⑧口口④ |①-②-|
⑥口⑦② |③-④-|
⑦①③③ |⑤-⑥-|
⑤口⑤① |⑦-⑧-|
12
⑥口⑦② |①-②-|
⑦①口③ |③-④-|
⑧④口④ |⑤-⑥-|
⑤口口① |⑦-⑧-|
13
⑦⑦⑤② |①-②-|
⑥①口③ |③-④-|
⑧口口④ |⑤-⑥-|
⑤口口① |⑦-⑧-|
14
⑧⑦⑤④ |①-②-|
⑥口口② |③-④-|
⑦①①③ |⑤-⑥-|
⑤口口① |⑦-⑧-|
15
⑧口口④ |①-②-|
⑥①⑦② |③-④-|
⑦③口③ |⑤-⑥-|
⑤⑤口① |⑦-⑧-|
16
⑥口口② |①-②-|
⑦口口③ |③-④-|
⑧口①④ |⑤-⑥-|
⑤④⑤① |⑦-⑧-|
17
口⑤⑥② |①-②-|
口⑦⑧③ |③-④-|
口⑨⑩④ |⑤⑥⑦⑧|
口⑪⑫① |⑨⑩⑪⑫|
18
口③口口 |--①-|
口口口① |②-③-|
口口口②
口口口口

④口口⑦
口口口⑦
⑤⑥口口 |④-⑤-|
口口口口 |⑥-⑦-|
19
口口口口 |--①-|
口口口口 |--②-|
②口①口 |③---|
③③口口 |----|
20
口④口口 |①-②-|
口口③② |③-④-|
口口口口
口口口①

⑤口口⑧
口口口⑧
⑥⑦口口 |⑤-⑥-|
口口⑤口 |⑦-⑧-|
21
②口口口 |--①-|
②口口口 |②---|
口口①③ |----|
口口口口 |--③-|
22
口④口口 |①-②-|
口口③② |③-④-|
口口口口
口口口①

⑤口口⑧
口口口⑧
⑥⑦口口 |⑤-⑥-|
口口⑤口 |⑦-⑧-|
23
口口口口 |--①-|
口口口口 |--②-|
②口①④ |③---|
③③口口 |--④-|
24
口④口口 |①-②-|
口口③② |③-④-|
口口口口
口口口①

⑤口口⑧
口口口⑧
⑥⑦口口 |⑤-⑥-|
口口⑤口 |⑦-⑧-|
25
④④口口 |--①-|
口③口口 |②-③-|
口口②① |④---|
⑤⑤口口 |⑤---|
26
④③⑧⑧ |①-②-|
口口②① |③-④-|
⑤⑥口口 |⑤-⑥-|
口⑦口① |⑦-⑧-|
27
口口口口 |--①-|
口口①口 |--②-|
口口②口 |③---|
③③④口 |④---|
28
口④口口 |①-②-|
口口③② |③-④-|
口口口口
口口口①

⑤口口⑧
口口口⑧
⑥⑦口口 |⑤-⑥-|
口口口口 |⑦-⑧-|
29
口②②口 |--①-|
口口口口 |②---|
口口①④ |③---|
③⑤口口 |④-⑤-|
30
口④口口 |①-②-|
口口③② |③-④-|
口口口口
口口口①

⑤口口⑧
口口口⑧
⑥⑦口口 |⑤-⑥-|
口口口口 |⑦-⑧-|
31
口口口口 |--①-|
口口口口 |--②-|
②口①④ |③---|
③③⑤口 |④-⑤-|
32
口④口口 |①-②-|
口口③② |③-④-|
口口口口
口口口①

⑤口口⑧
口口口⑧
⑥⑦口⑧ |⑤-⑥-|
口口口口 |⑦-⑧-|
33
③②④口 |--①-|
③②④口 |②-③-|
⑤⑤①口 |④---|
口口①口 |⑤---|
34
口口口口 |①-②-|
口口口口 |③-④-|
口口③④
①①①②

口口⑦⑧
口口⑤⑥
口口口口 |⑤-⑥-|
⑦⑦口口 |⑦-⑧-|
35
①①⑦⑧ |①-②-|
⑦口⑤⑥ |③-④-|
口口③④ |⑤-⑥-|
口口①② |⑦-⑧-|
36
⑧⑧⑦⑧ |①-②-|
口口⑤⑥ |③-④-|
口①③④ |⑤-⑥-|
⑤口①② |⑦-⑧-|
37
⑦口⑦⑧ |①-②-|
⑤口⑤⑥ |③-④-|
③④③④ |⑤-⑥-|
口②①② |⑦-⑧-|
38
口口口口 |①-②-|
口口口口 |③-④-|
口口③④
①口①②

口口⑦⑧
口口⑤⑥
口口口口 |⑤-⑥-|
⑦⑦口口 |⑦-⑧-|
39
①①⑦⑧ |①-②-|
口⑤⑤⑥ |③-④-|
⑦口③④ |⑤-⑥-|
口口①② |⑦-⑧-|
40
口口⑦⑧ |①-②-|
口口⑤⑥ |③-④-|
口口③④ |⑤-⑥-|
口①①② |⑦-⑧-|
41
⑦口⑦⑧ |①-②-|
⑤口⑤⑥ |③-④-|
③口③④ |⑤-⑥-|
①口①② |⑦-⑧-|
42
口口⑦⑧ |①-②-|
口口⑤⑥ |③-④-|
口口③④ |⑤-⑥-|
①口①② |⑦-⑧-|
43
⑥⑥⑥⑥ |①-②-|
⑤⑤⑤口 |③-④-|
③③③④ |⑤---|
①①①② |⑥---|
44
口④口口 |①---|
④③口② |②-③-|
口口口口 |----|
①①①① |④---|
45
④口口② |①---|
口口①口 |②---|
口口②口 |③---|
口③④口 |④---|
46
口口口口 |①---|
④口口② |②-③-|
口①①口 |----|
口②④③ |④---|
47
④④③② |①---|
口①①口 |②---|
口口口口 |③---|
口口口口 |④---|
48
口口③口 |①---|
⑤口口② |②-③-|
⑤①①④ |④---|
②口口口 |⑤---|
49
④口口口 |①---|
口①口口 |②---|
④②口③ |③---|
②③口① |④---|
50
口口口④ |①---|
口①③② |②-③-|
口口口口 |----|
③口口① |④---|
51
①②口口 |①②③④|
③④⑥⑦ |⑤-⑥⑦|
⑤口口口
口口口口

⑪⑫口口
⑬⑭口口
口口⑧⑨ |⑧⑨⑩-|
口口⑩口 |⑪⑫⑬⑭|
52
口口口口 |①---|
口口口② |②---|
①口口口
②口口②

口口口口
④口④口
④口口③ |③---|
口口口口 |④---|
53
④口口② |①---|
口口口① |②---|
④①②③ |③---|
口口③① |④---|
54
口口口③ |①---|
⑤①②② |②-③-|
⑤口口④ |④---|
口①口① |⑤---|
55
口⑧口④ |①-②-|
⑦⑦③③ |③-④-|
⑥口②口 |⑤-⑥-|
⑤⑤①① |⑦-⑧-|
56
口口③口 |①---|
⑤口口② |②-③-|
⑤口①④ |④---|
②口口① |⑤---|
57
④口口口 |①---|
口①口口 |②---|
④②口③ |③---|
②口③① |④---|
58
⑤口①口 |①---|
⑤口口② |②-③-|
口口①口 |④---|
②③④④ |⑤---|
59
口③④口 |①---|
口⑤⑥口 |②---|
①⑦⑧① |③④⑤⑥|
②⑨⑩② |⑦⑧⑨⑩|
60
②③③② |①---|
②口口② |②---|
①口口① |----|
口口口口 |③---|
61
口口口口 |①---|
②⑦⑦① |②-③④|
⑥口口⑤ |⑤---|
②③④① |⑥-⑦-|
62
②①①② |①---|
①口口① |--②-|
口②②口 |----|
③③③③ |③---|
63
③⑤④② |①-②-|
口①①口 |③---|
①口口① |④---|
口口口口 |⑤---|
64
口口③口 |①---|
②口③② |②-③-|
①①①①
口口口口

口④口口
口口口口
口④口口 |----|
口口口口 |④---|
65
口口口口 |①---|
②①②① |②-③④|
⑥口⑥⑤ |⑤---|
口③④① |⑥---|
66
②口⑤⑥ |①---|
④①③口 |②-③-|
④口口口 |----|
口口口口 |④-⑤⑥|
67
⑥⑧⑦⑨ |①②③④|
⑥⑧⑤口 |⑤---|
口口③④ |⑥-⑦-|
口口①② |⑧-⑨-|
68
口口③口 |①---|
②口③② |②---|
口②②口 |----|
口①①口 |③---|
69
口口口口 |①---|
⑥口口⑥ |②-③④|
口①②⑤ |⑤---|
②③④① |⑥---|
70
口①①口 |①---|
口口口口 |--②-|
口①①②
口口口②

④⑤口③
口口口口
口口口口 |----|
口口口口 |③-④⑤|
71
⑦⑦⑥⑥ |①②③④|
⑤⑥⑦口 |⑤---|
③④口口 |⑥---|
①②口口 |⑦---|
72
口口③口 |①---|
②口口② |②-③-|
口①①口
口①①口

口④口口
口⑤口口
口口⑥口 |----|
口口口口 |④-⑤⑥|
73
口④④口 |①---|
口⑤口口 |②---|
②①⑥② |③---|
口③③口 |④-⑤⑥|
74
口口口口 |①---|
口口口口 |--②-|
②①口②
口②口口

口口口口
口④⑤口
口⑥⑦口 |③---|
口口③口 |④⑤⑥⑦|
75
⑤①①⑤ |--①-|
⑤口口⑤ |--②③|
④口口④ |④---|
口②③口 |⑤---|
76
口口口口 |①---|
口①①口 |----|
口①①口 |----|
口口口口 |----|


不确定度: 0

タグ:

+ タグ編集
  • タグ:

このサイトはreCAPTCHAによって保護されており、Googleの プライバシーポリシー利用規約 が適用されます。

最終更新:2012年11月08日 18:38