Starlight Parade
肥塚良彦

ADVANCED

Level: 6
BPM: 131
Notes: 381

1
口口口口 |----|
口口口口 |----|
口口口口 |----|
口口口口 |----|
2
口④口口 |----|
口口③口 |----|
口②口口 |①-②-|
口口①口 |③-④-|
3
口④口口 |----|
③口①口 |----|
口②口口 |①-②-|
口口口口 |③-④-|
4
①口口⑥ |--①-|
口②口⑤ |②-③-|
口口③④ |--④-|
口口口口 |⑤-⑥-|
5
⑥口①口 |--①-|
⑤口②口 |②-③-|
④口③口 |--④-|
口口口口 |⑤-⑥-|
6
口口④口 |----|
口③口口 |----|
口口②口 |①-②-|
口①口口 |③-④-|
7
口口④口 |----|
口③口① |----|
口口②口 |①-②-|
口口口口 |③-④-|
8
口口口① |--①-|
口口②口 |②-③-|
口③口口
口口口口

口口口⑥
口口口⑤
口口口④ |--④-|
口口口口 |⑤-⑥-|
9
⑥口①口 |--①-|
⑤口②口 |②-③-|
④口③口 |--④-|
口口口口 |⑤-⑥-|
10
口口口口 |----|
口口口口 |----|
口口口口 |----|
口口口口 |----|
11
口④②⑤ |①---|
口①③① |--②-|
口⑤②④ |③--④|
口口口口 |--⑤-|
12
口④口④ |----|
口口③口 |①-②-|
口口②口 |--③-|
口口①口 |--④-|
13
口口④口 |----|
口②①② |--①-|
口口④口 |②-③-|
口③口③ |--④-|
14
口口口口 |--①-|
①②③④ |--②-|
①②③④ |--③-|
口口口口 |--④-|
15
①②③口 |①-②-|
口④口口 |③-④-|
⑤口⑥口 |--⑤-|
口口口口 |--⑥-|
16
③④⑤口 |----|
①口②口 |①-②-|
口口口口 |--③-|
口口口口 |④-⑤-|
17
口口口口 |--①-|
口口口口 |②---|
①口②口 |----|
口口口口 |----|
18
口口口口 |①---|
①口③口 |②---|
①②③④ |③---|
口②口④ |④---|
19
口④②⑤ |①---|
口①③① |--②-|
口⑤②④ |③--④|
口口口口 |--⑤-|
20
口④口④ |----|
口口③口 |①-②-|
口口②口 |--③-|
口口①口 |--④-|
21
口口④口 |----|
口②①② |--①-|
口口④口 |②-③-|
口③口③ |--④-|
22
口口口口 |--①-|
①②③口 |--②-|
①②③口 |--③-|
⑤④口口 |--④⑤|
23
②②⑥⑥ |--①-|
①①⑤⑤ |②-③④|
口⑦⑦口 |--⑤-|
口口④③ |⑥-⑦-|
24
口口口口 |--①-|
②口口② |②---|
①口口① |----|
④③口口 |--③④|
25
②②⑥⑥ |--①-|
①①⑤⑤ |②-③④|
口⑦⑦口 |--⑤-|
口口④③ |⑥-⑦-|
26
口⑥口口 |--①-|
②口⑤② |②---|
①④口① |③-④-|
口口③口 |⑤-⑥-|
27
口④口口 |----|
③口①口 |----|
口②口口 |①-②-|
口口口口 |③-④-|
28
①口口⑥ |--①-|
口②口⑤ |②-③-|
口口③④ |--④-|
口口口口 |⑤-⑥-|
29
⑥口①口 |--①-|
⑤口②口 |②-③-|
④口③口 |--④-|
口口口口 |⑤-⑥-|
30
口①口① |----|
口②口④ |①---|
口②③④ |②--③|
口口③口 |--④-|
31
④口口口 |①---|
②口口口 |--②-|
③口口口 |--③-|
①口口口 |--④-|
32
口⑥③口 |--①-|
口⑤②口 |②-③-|
口④①口 |--④-|
口口口口 |⑤-⑥-|
33
口⑧⑦口 |①②-③|
口⑥⑤口 |④-⑤⑥|
口④③口 |-⑦⑧-|
口②①口 |----|
34
口⑧⑦口 |①②-③|
口⑥⑤口 |④-⑤⑥|
口④③口 |-⑦⑧-|
口②①口 |----|
35
口④口口 |①-②-|
口⑦③口 |③-④-|
口②⑥口 |--⑤-|
口口①⑤ |⑥-⑦-|
36
口口口口 |--①-|
口④③口 |②-③-|
口②④口 |----|
①口口口 |--④-|
37
口口口口 |--①-|
②口①口 |--②-|
口①口②
口口口口

口口口③
口口④口
口④口口 |--③-|
③口口口 |--④-|
38
②口口口 |①-②-|
③①口④ |③-④-|
④口①③
口口口②

口口口口
口⑥⑤口
口⑤⑥口 |--⑤-|
口口口口 |⑥---|
39
口口口口 |----|
口口口口 |----|
口口口口 |----|
口口口口 |----|
40
口口口口 |①-②-|
⑥⑦③③ |③-④⑤|
④⑤①① |--⑥-|
口口②② |-⑦--|
41
口口口口 |①--②|
口⑥①口 |--③-|
④口③② |--④-|
口⑤口口 |⑤-⑥-|
42
⑥口⑤⑦ |--①-|
④口③口 |②-③-|
②⑦①口 |④-⑤-|
口口口口 |⑥-⑦-|
43
口①口口 |--①-|
③口口② |----|
口口口① |----|
口口口口 |②-③-|
44
口⑤⑤口 |①②-③|
⑦④④⑥ |-④-⑤|
③②口③ |----|
口口①口 |⑥-⑦-|
45
④⑤⑤④ |①②-③|
口口口口 |-④-⑤|
③②口③
口口①口

口口口口
口⑦⑥口
口⑥⑦口 |----|
口口口口 |⑥-⑦-|
46
④口口④ |--①-|
①口口① |--②-|
口口口口 |--③-|
③②②③ |--④-|
47
口口口口 |----|
①①口口 |①---|
②②口口 |②---|
③③口口 |③---|
48
口口口口 |①-②-|
⑥⑦③③ |③-④⑤|
④⑤①① |--⑥-|
口口②② |-⑦--|
49
口口口口 |①--②|
口⑥①口 |--③-|
④口③② |--④-|
口⑤口口 |⑤-⑥-|
50
⑥口⑤⑦ |--①-|
④口③口 |②-③-|
②⑦①口 |④-⑤-|
口口口口 |⑥-⑦-|
51
口①口口 |--①-|
口口③② |----|
口口口① |----|
口口③② |②-③-|
52
④⑤⑥口 |--①-|
口口口口 |②-③-|
①②③口 |--④-|
口口口口 |⑤-⑥-|
53
口口口口 |--①-|
④⑤⑥口 |②-③-|
口口口口 |--④-|
①②③口 |⑤-⑥-|
54
口口②① |--①-|
口口口口 |②---|
口口②① |----|
口口口口 |----|
55
⑧口口④ |①-②-|
⑦口口③ |③-④-|
口⑥②口 |⑤-⑥-|
口⑤①口 |⑦-⑧-|
56
口口口口 |①---|
口①①口 |----|
口口口口 |②---|
口②②口 |----|
57
口④④口 |①---|
口③③口 |----|
②①①② |②---|
口口口口 |③--④|
58
口口口口 |----|
口口口口 |----|
口口口口 |----|
口口口口 |----|
59
口口口口 |----|
口口口口 |----|
口口口口 |----|
口口口口 |----|
60
口口口口 |①---|
口①①口 |----|
口口口口 |②---|
口②②口 |----|
61
口④④口 |①---|
口③③口 |----|
②①①② |②---|
口口口口 |③--④|


不确定度: 0

タグ:

+ タグ編集
  • タグ:

このサイトはreCAPTCHAによって保護されており、Googleの プライバシーポリシー利用規約 が適用されます。

最終更新:2012年11月08日 18:37