量子の海のリントヴルム
黒猫ダンジョン

BASIC

Level: 5
BPM: 280
Notes: 330

實際BPM: 140
1
口口口口 |----|
口口口口 |----|
口口口口 |----|
口口口口 |----|
2
口口口口 |①--②|
口口口口 |---③|
②④口口 |--④-|
①③口口 |--|
3
口口口口 |①--②|
口口口口 |---③|
口口②④ |--④-|
口口①③ |--|
4
口口口口 |①--②|
口②口④ |---③|
口口口口 |--④-|
①口③口 |--|
5
口③口口 |①--②|
②④口口 |---③|
①口口口 |--④-|
口口口口 |--|
6
口口③口 |①--②|
口口④② |---③|
口口口① |--④-|
口口口口 |--|
7
口口口口 |①---|
口口口口 |----|
口①①口 |----|
口口口口 |--|
8
口口口口 |①--②|
口口口① |---③|
口口④② |--④-|
口口③口 |--|
9
口口口口 |①--②|
①口口口 |---③|
②④口口 |--④-|
口③口口 |--|
10
口口口口 |①---|
口①①口 |----|
口口口口 |----|
口口口口 |--|
11
口口④口 |①--②|
口③口④ |---③|
口②③口 |--④-|
①口口口 |--|
12
①口口口 |①--②|
口②③口 |---③|
口③口④ |--④-|
口口④口 |--|
13
口口口口 |①---|
口口口口 |②---|
④口③口 |③---|
口②口① |④---|
14
④口③口 |①---|
口②口① |②---|
口口口口 |③---|
口口口口 |④---|
15
口②口① |①---|
④口③口 |②---|
口口口口 |③---|
口口口口 |④---|
16
口口口口 |①---|
口口口口 |②---|
口②口① |③---|
④口③口 |④---|
17
口口口口 |①--②|
口口④口 |--③-|
口口③② |-④--|
口口口①
18
口口口口 |①--②|
口④口口 |--③-|
②③口口 |-④--|
①口口口
19
口口口口 |①--②|
口④②口 |--③-|
口口口口 |-④--|
口③①口
20
④口口③ |①--②|
②口口① |--③-|
口口口口 |-④--|
口口口口
21
口①①口 |①---|
口②③口 |----|
口③②口 |②---|
口口口口 |③---|
22
口口口口 |①---|
③口口③ |----|
②口口② |②---|
口①①口 |③---|
23
①口②① |①-②-|
口⑦③口 |③-④-|
口⑥④口 |--⑤-|
口⑤口口 |⑥-⑦-|
24
口⑥口口 |--①-|
口⑤①口 |②-③-|
口④②口 |--④-|
口口③口 |⑤-⑥-|
25
口口口口 |--①-|
口③②① |②-③-|
④⑤⑥口 |--④-|
口口口口 |⑤-⑥-|
26
口口口口 |--①-|
③②①口 |②-③-|
口④⑤⑥ |--④-|
口口口口 |⑤-⑥-|
27
口⑤③① |①--②|
⑤④②口 |--③-|
口口口口 |-④--|
口口口口 |⑤---|
28
口口口口 |①--②|
口口口口 |----|
口②④④ |③--④|
①②③③ |----|
29
①③⑤口 |①--②|
口②④⑤ |--③-|
口口口口 |-④--|
口口口口 |⑤---|
30
口口口口 |①--②|
口口口口 |----|
④④②口 |③--④|
③③②① |----|
31
口口口④ |①-②-|
①②③⑤ |③---|
口口口口 |④-⑤-|
口口口口 |----|
32
口口口口 |①-②-|
⑤口口口 |③---|
⑤③②① |④--⑤|
④口口口 |----|
33
①口口口 |-①--|
口②口口 |②--③|
口口③口 |--④-|
口口口④ |----|
34
口口口口 |----|
口口口口 |----|
口口口口
口口口口
35
口口口④ |①-②-|
①②③⑤ |③---|
口口口口 |④-⑤-|
口口口口 |----|
36
口口口口 |①-②-|
⑤口口口 |③---|
⑤③②① |④--⑤|
④口口口 |----|
37
①口口口 |-①--|
口②口口 |②--③|
口口③口 |--④-|
口口口④ |----|
38
①口口① |----|
口口口口 |----|
口口口口 |①---|
口口口口 |--|
39
口①③口 |①--②|
口②④口 |--③-|
口口口口 |-④--|
口口口口
40
口口口口 |①--②|
口口口口 |--③-|
口①②口 |-④--|
口③④口
41
口口口口 |①---|
口口口口 |----|
口口口口 |----|
①口口① |----|
42
④③口口 |①---|
口口①② |②---|
口口口口 |③---|
口口口口 |④-|
43
口口口口 |-①-②|
①②口口 |--③-|
④⑤口口 |--④-|
口③口口 |-⑤|
44
口口口口 |--①-|
口口口口 |--②-|
口口①③ |-③--|
口口①②
45
④③口口 |①---|
口口①② |②---|
口口口口 |③---|
口口口口 |④-|
46
口口口口 |-①-②|
①②口口 |--③-|
④⑤口口 |--④-|
口③口口 |-⑤|
47
口口口口 |--①-|
口口口口 |--②-|
口口①③ |-③--|
口口①②
48
②口口口 |①-②-|
③①①口 |③-④-|
④口⑧口 |⑤-⑥-|
⑤⑥⑦口 |⑦-⑧-|
49
口⑥⑤④ |①-②-|
口⑧⑦③ |③-④-|
口口口② |⑤-⑥-|
口口口① |⑦-⑧-|
50
口口口口 |①--②|
②口口④ |----|
②①③④ |③--④|
口口口口 |----|
51
⑧口口口 |①-②-|
⑦③①口 |③-④-|
⑥④②口 |⑤-⑥-|
⑤口口口 |⑦-⑧-|
52
口口口② |①-②-|
口①①③ |③-④-|
口⑧口④ |⑤-⑥-|
口⑦⑥⑤ |⑦-⑧-|
53
④⑤⑥口 |①-②-|
③⑦⑧口 |③-④-|
②口口口 |⑤-⑥-|
①口口口 |⑦-⑧-|
54
口口口口 |①--②|
④口口② |----|
④③①② |③--④|
口口口口 |----|
55
口口口⑧ |①-②-|
口①③⑦ |③-④-|
口②④⑥ |⑤-⑥-|
口口口⑤ |⑦-⑧-|
56
③②①口 |①--②|
③口口口 |--③-|
口口口口 |----|
口口口口 |----|
57
口口口口 |①--②|
口口口口 |--③-|
口口口④ |-④--|
①②③④ |----|
58
口口口口 |①--②|
③口口口 |--③-|
③②①口 |----|
口口口口 |----|
59
①②③④ |①--②|
口口口④ |--③-|
口口口口 |-④--|
口口口口 |----|
60
口口口口 |----|
口口口口 |--|
口口口口
口口口口
61
口口口口 |①--②|
口口口口 |--③-|
口④②口 |-④--|
③口口①
62
口口口口 |①--②|
口口口口 |--③-|
④口口② |-④--|
口③①口
63
口④②口 |①--②|
③口口① |--③-|
口口口口 |-④--|
口口口口
64
③口口① |①--②|
口④②口 |--③-|
口口口口 |-④--|
口口口口
65
口口口口 |①--②|
口口口口 |--③-|
口④②口 |-④--|
③口口①
66
口口口口 |①--②|
口口口口 |--③-|
④口口② |-④--|
口③①口
67
口④②口 |①--②|
③口口① |--③-|
口口口口 |-④--|
口口口口
68
③口口① |①--②|
口④②口 |--③-|
口口口口 |-④--|
口口口口
69
④④④④ |①---|
口③③口 |-②--|
口②②口 |--③-|
口①①口 |---④|


不確定度: 0

タグ:

+ タグ編集
  • タグ:

このサイトはreCAPTCHAによって保護されており、Googleの プライバシーポリシー利用規約 が適用されます。

最終更新:2013年03月29日 19:54