やさしくなりたい
斉藤和義

EXTREME

Level: 9
BPM: 132
Notes: 590

1
口口口口 |----|
口口口口 |----|
口口口口 |----|
口口口口 |----|
2
⑤③②④ |①-②③|
⑦口口⑥ |④⑤⑥⑦|
口口口口
口①①口

口口口口
口口口口
⑨⑮⑭⑧ |⑧⑨⑩⑪|
⑪⑬⑫⑩ |⑫⑬⑭⑮|
3
⑥④③⑤ |①②③④|
⑧②①⑦ |⑤⑥⑦⑧|
口口口口
口口口口

口口口口
口⑯口口
⑩口⑮⑨ |⑨⑩⑪⑫|
⑫⑭⑬⑪ |⑬⑭⑮⑯|
4
③①①② |①---|
⑤口口④ |②③④⑤|
⑦⑬⑫⑥ |⑥⑦⑧⑨|
⑨⑪⑩⑧ |⑩⑪⑫⑬|
5
⑥④③⑤ |①②③④|
⑧②①⑦ |⑤⑥⑦⑧|
口口口口
口口口口

口口口口
口⑬⑬口
⑩⑫⑪⑨ |⑨⑩⑪-|
口⑫⑪口 |⑫-⑬-|
6
口①①口 |①---|
口口口口 |②③④⑤|
口口口口
③⑤②④

口口⑫⑫
⑪口⑩口
⑦⑨⑥⑧ |⑥⑦⑧⑨|
口口口口 |⑩⑪⑫-|
7
①①口口 |--①-|
口②②口 |--②-|
④⑤⑤③ |--③-|
④口口③ |④-⑤-|
8
③⑤②④ |①---|
⑦⑨⑥⑧ |②③④⑤|
⑪⑬⑩⑫ |⑥⑦⑧⑨|
口①①口 |⑩⑪⑫⑬|
9
⑥⑧⑤⑦ |①②③④|
口口口口 |⑤⑥⑦⑧|
口口口口
②④①③

口口口口
⑩口口⑨
⑩口口⑨ |⑨-⑩-|
口⑪⑪口 |--⑪-|
10
⑤口口口 |①---|
口①①② |②③④⑤|
③口口口
口口口④

口口⑧⑫
⑪口口口
⑬⑨口⑥ |⑥⑦⑧⑨|
⑦口⑩口 |⑩⑪⑫⑬|
11
⑥②口口 |①②③④|
口口⑦⑤ |⑤⑥⑦⑧|
口⑧①口
口④口③

口口⑨⑨
⑩⑩口口
口口⑪⑪ |⑨-⑩-|
⑫⑫口口 |⑪-⑫-|
12
①①口口 |①---|
③口②口 |②-③-|
口②口③
口口①①

口⑤口④
口口口口
口口口口 |----|
④口⑤口 |④-⑤-|
13
口口口口 |①-②-|
口口③③ |③---|
口口口②
口口口①

⑥⑤口口
⑦④口口
口口④⑦ |④-⑤-|
口口⑤⑥ |⑥-⑦-|
14
口③②口 |①---|
口口口① |②-③-|
①口口口
口②③口

口口⑤口
口④口口
口口④口 |----|
口⑤口口 |④-⑤-|
15
①口口口 |①-②-|
②口口口 |③---|
③③口口
口口口口

⑦⑥⑤④
口口口⑤
口口口⑥ |④-⑤-|
口口口⑦ |⑥-⑦-|
16
口⑤⑤② |①---|
口①口② |②-③-|
③口①口 |----|
③④④口 |④-⑤-|
17
口口口口 |①-②-|
口口③③ |③---|
口口口②
口口口①

⑥口口口
④⑥口⑦
④口⑦口 |④-⑤-|
口口⑤⑤ |⑥-⑦-|
18
口①①② |①---|
③④④口 |②-③-|
口④④② |--④-|
③⑤⑤口 |--⑤-|
19
①口口口 |①-②-|
②口口口 |③---|
③③口口
口口口口

口口④口
口⑦⑤④
⑦口⑤⑥ |④-⑤-|
口口⑥口 |⑥-⑦-|
20
②口口口 |①---|
②口口口 |②-③-|
口口口口
①①③③

口口⑤⑤
口口口口
④口口口 |----|
④口口口 |④-⑤-|
21
口口口口 |①-②-|
口口③③ |③-④-|
口口口②
口④口①

口⑦口口
⑤口口口
口口口⑧ |⑤-⑥-|
口口⑥口 |⑦-⑧-|
22
口口①① |①---|
口②口口 |②-③-|
口口口口 |--④-|
④口③⑤ |--⑤-|
23
①口口口 |①-②-|
②口口口 |③---|
③③口口
口口口口

⑥⑤④口
口⑦口④
口口⑦⑤ |④-⑤-|
口口口⑥ |⑥-⑦-|
24
口口口② |①---|
口口口口 |②-③-|
①口口口
③①口口

口④⑤口
⑤口口④
口口口口 |--④-|
口④⑤口 |--⑤-|
25
口口口口 |①-②-|
口口③③ |③---|
口口口②
口口口①

口口④④
⑤⑤口口
口口⑥⑥ |④-⑤-|
口⑦⑦口 |⑥-⑦-|
26
口口③② |----|
口④①口 |①-②-|
口①④口 |--③-|
②③口口 |--④-|
27
①口口口 |①-②-|
②口口口 |③---|
③③口口
口口口口

⑦口口口
⑧④口口
口口口⑤ |④-⑤⑥|
口口⑨⑥ |⑦⑧⑨-|
28
口①③口 |①-②-|
口②④口 |③-④-|
口①③口
口口口口

⑦⑥⑦⑥
⑤口口⑤
⑥口口⑦ |⑤---|
口口口口 |⑥-⑦-|
29
口口口口 |①---|
口①②口 |②---|
⑤口③⑤ |③-④-|
口④口口 |--⑤-|
30
口①③口 |①-②-|
口④②口 |③-④-|
口①③口
口口口口

⑦⑥⑦⑥
⑤口口⑤
⑥口口⑦ |⑤---|
口口口口 |⑥-⑦-|
31
口口口口 |①-②-|
④口③口 |③---|
口②口口 |④-⑤-|
口口①⑤ |----|
32
⑤①②⑤ |①-②-|
③③④④ |③-④-|
⑥①②⑦ |⑤---|
口⑥⑦口 |⑥-⑦-|
33
口口口口 |①---|
口口口口 |②---|
口①②口 |③---|
③口口④ |④---|
34
⑥⑦⑦⑤ |①-②-|
②④③① |③-④-|
⑤⑦⑦⑥ |⑤-⑥-|
⑤③④⑥ |--⑦-|
35
口口口口 |----|
口②③口 |----|
①④口① |①-②③|
⑥口口⑤ |④⑤⑥-|
36
口③①口 |①-②-|
③口口① |③-④-|
④口口②
口④②口

⑥⑦⑦⑤
⑦口口⑦
口口口口 |⑤-⑥-|
⑤口口⑥ |--⑦-|
37
口口口口 |①---|
口⑤口口 |②---|
②口⑤④ |③---|
口③①口 |④-⑤-|
38
①①口① |--①-|
②口②② |②-③-|
③③口③
口口口口

⑦口口⑦
口⑦⑦口
口口⑥口 |④-⑤-|
④⑤④④ |⑥-⑦-|
39
口口口口 |①---|
④口口② |②---|
口①③口 |③---|
口口口口 |④---|
40
①②③口 |①-②-|
⑦⑤④⑥ |③-④-|
⑥④⑤⑦ |⑤---|
口③②① |⑥-⑦-|
41
⑤口口口 |①---|
口⑤口口 |②---|
口口口口 |③---|
②③①④ |④-⑤-|
42
口④①⑤ |①-②-|
④口⑤① |③-④-|
⑥②⑦③ |⑤-⑥-|
②⑥③⑦ |--⑦-|
43
口口口口 |①---|
①口口② |②---|
③⑤④⑧ |③-④⑤|
③⑦⑥⑧ |⑥⑦⑧-|
44
⑥④③⑤ |①②③④|
⑧②①⑦ |⑤⑥⑦⑧|
⑩⑯⑮⑨ |⑨⑩⑪⑫|
⑫⑭⑬⑪ |⑬⑭⑮⑯|
45
⑥④③⑤ |①②③④|
⑧②①⑦ |⑤⑥⑦⑧|
⑩⑯⑮⑨ |⑨⑩⑪⑫|
⑫⑭⑬⑪ |⑬⑭⑮⑯|
46
⑥④③⑤ |①②③④|
⑧②①⑦ |⑤⑥⑦⑧|
⑩⑯⑮⑨ |⑨⑩⑪⑫|
⑫⑭⑬⑪ |⑬⑭⑮⑯|
47
⑥④③⑤ |①②③④|
⑧②①⑦ |⑤⑥⑦⑧|
口口口口
口口口口

口口口口
口⑫口口
⑩口口⑪ |⑨-⑩-|
口口口⑨ |⑪-⑫-|
48
⑭⑯⑬⑮ |①②③④|
⑩⑫⑨⑪ |⑤⑥⑦⑧|
⑥⑧⑤⑦ |⑨⑩⑪⑫|
②④①③ |⑬⑭⑮⑯|
49
⑭⑬⑯⑮ |①②③④|
⑩⑨⑫⑪ |⑤⑥⑦⑧|
⑥⑤⑧⑦ |⑨⑩⑪⑫|
②①④③ |⑬⑭⑮⑯|
50
⑥口口⑥ |①-②-|
④⑦⑦④ |③-④-|
②⑤⑤① |⑤---|
②③③① |⑥-⑦-|
51
口口口口 |①---|
口口口口 |----|
①口口① |----|
①口口① |----|


不確定度: 0

タグ:

+ タグ編集
  • タグ:

このサイトはreCAPTCHAによって保護されており、Googleの プライバシーポリシー利用規約 が適用されます。

最終更新:2013年04月07日 23:37