PONPONPON
きゃりーぱみゅぱみゅ

BASIC

Level: 3
BPM: 128
Notes: 220

1
口口口口 |----|
口口口口 |----|
口口口口 |----|
口口口口 |----|
2
口口口口 |----|
口口口口 |--①-|
口①①口 |----|
口口口口 |----|
3
口口口口 |①---|
口③口口 |②---|
口②②口 |③---|
口①口口 |----|
4
口口口口 |①---|
①口口① |----|
口口口口 |----|
口口口口 |----|
5
口口①口 |①---|
口②②口 |②---|
口口③口 |③---|
口口口口 |----|
6
口口口口 |①---|
口口口口 |----|
①口口① |----|
口口口口 |----|
7
口口口口 |①---|
口③口口 |②---|
口②②口 |③---|
口①口口 |----|
8
口口口口 |①---|
①口口① |----|
口口口口 |----|
口口口口 |----|
9
口口①口 |①---|
口②②口 |②---|
口口③口 |③---|
口口口口 |----|
10
口口口口 |①---|
口口口口 |----|
①口口① |②---|
口②③口 |③---|
11
口口口口 |①---|
②③④口 |②---|
①口口口 |③---|
口口口口 |④---|
12
口口①① |①---|
口口口口 |----|
口口口口 |②---|
口②③口 |③---|
13
口口口口 |①---|
①口口口 |②---|
②③④口 |③---|
口口口口 |④---|
14
口口口口 |①---|
口口口口 |----|
口口口口
口口①①

口口口口
口口口口
口口口口 |②---|
口②③口 |③---|
15
口口口口 |①---|
②③④口 |②---|
①口口口 |③---|
口口口口 |④---|
16
口口①① |①---|
口口口口 |----|
口③口口 |②---|
口②口口 |③---|
17
口②③口 |①---|
口①④口 |②---|
口口口口 |③---|
口口口口 |④---|
18
口口口口 |①---|
口口③③ |②---|
②②①口 |③---|
口口口口 |----|
19
①口口② |①---|
口③口口 |②---|
口④口口 |③-④-|
口⑤口口 |⑤---|
20
口口口口 |①---|
口口③口 |②---|
①②④口 |③-④-|
口口⑤口 |⑤---|
21
口⑤口口 |①---|
①④口② |②---|
口③口口 |③-④-|
口口口口 |⑤---|
22
口口⑤口 |①---|
①②④口 |②---|
口口③口 |③-④-|
口口口口 |⑤---|
23
②口口① |①---|
口口③口 |②---|
口口④口 |③-④-|
口口⑤口 |⑤---|
24
口口口口 |①---|
口③口口 |②---|
口④②① |③-④-|
口⑤口口 |⑤---|
25
口口⑤口 |①---|
②口④① |②---|
口口③口 |③-④-|
口口口口 |⑤---|
26
口⑤口口 |①---|
口④②① |②---|
口③口口 |③-④-|
口口口口 |⑤---|
27
口口口口 |①---|
②②口口 |----|
①口口口 |②---|
口口口口 |----|
28
口口口口 |①---|
口口口① |----|
口口②② |②---|
口口口口 |----|
29
口口口口 |①---|
口口口口 |----|
口口口口 |②---|
①口口② |----|
30
口口口口 |①---|
③口②① |②---|
口口口口 |③---|
口口口口 |----|
31
口口口口 |①---|
口口②② |----|
口口口① |②---|
口口口口 |----|
32
口口口口 |①---|
①口口口 |----|
②②口口 |②---|
口口口口 |----|
33
口口口口 |①---|
口②口口 |----|
口口③口 |②---|
口①①口 |③---|
34
口口口口 |①---|
口②②口 |----|
①③③① |②---|
口口口口 |③---|
35
①口口② |①---|
口③口口 |②---|
口④口口 |③-④-|
口⑤口口 |⑤---|
36
口口口口 |①---|
口口③口 |②---|
①②④口 |③-④-|
口口⑤口 |⑤---|
37
口⑤口口 |①---|
①④口② |②---|
口③口口 |③-④-|
口口口口 |⑤---|
38
口口⑤口 |①---|
①②④口 |②---|
口口③口 |③-④-|
口口口口 |⑤---|
39
②口口① |①---|
口口③口 |②---|
口口④口 |③-④-|
口口⑤口 |⑤---|
40
口口口口 |①---|
口③口口 |②---|
口④②① |③-④-|
口⑤口口 |⑤---|
41
口口⑤口 |①---|
②口④① |②---|
口口③口 |③-④-|
口口口口 |⑤---|
42
口⑤口口 |①---|
口④②① |②---|
口③口口 |③-④-|
口口口口 |⑤---|
43
口口③口 |①---|
①②④口 |②---|
口口⑤口 |③-④-|
口口口口 |⑤---|
44
口口口口 |①-②-|
①②③口 |③-④-|
口④口口
口口口口

口口口口
⑥⑦口口
口口⑤口 |⑤-⑥-|
口口口口 |⑦---|
45
口③口口 |①---|
口④②① |②---|
口⑤口口 |③-④-|
口口口口 |⑤---|
46
口口口口 |①-②-|
口③②① |③-④-|
口口④口
口口口口

口口口口
口口⑦⑥
口⑤口口 |⑤-⑥-|
口口口口 |⑦---|
47
口口③口 |①---|
①①④口 |②---|
②②⑤口 |③-④-|
口口口口 |⑤---|
48
口口口口 |①-②-|
①②③口 |③-④-|
口④口口
口口口口

口口口口
⑥⑦口口
口口⑤口 |⑤-⑥-|
口口口口 |⑦---|
49
口③口口 |①---|
口④①① |②---|
口⑤②② |③-④-|
口口口口 |⑤---|
50
口口口口 |①-②-|
口③②① |③-④-|
口口④口
口口口口

口口口口
口口⑦⑥
口⑤口口 |⑤-⑥-|
口口口口 |⑦---|


不確定度: 0

タグ:

+ タグ編集
  • タグ:

このサイトはreCAPTCHAによって保護されており、Googleの プライバシーポリシー利用規約 が適用されます。

最終更新:2013年04月07日 23:11