PONPONPON
きゃりーぱみゅぱみゅ

EXTREME

Level: 7
BPM: 128
Notes: 445

1
口口口口 |----|
口口口口 |----|
口口口口 |----|
口口口口 |----|
2
口①口口 |----|
口口口① |--①-|
①口口口 |----|
口口①口 |----|
3
口②口③ |①-②-|
口口口③ |③---|
①口口口
口口口口

⑥口⑤⑦
口口口⑦
口口口④ |④-⑤-|
口口口口 |⑥-⑦-|
4
口③②口 |----|
口⑤④口 |①-②-|
口口⑥口 |③-④-|
①口口⑤ |⑤-⑥-|
5
⑥⑤口③ |①-②-|
口口口④ |③---|
口①口⑦ |④-⑤-|
口③②⑦ |⑥-⑦-|
6
口③②口 |----|
口⑤④口 |①-②-|
口口⑥口 |③-④-|
①口口⑤ |⑤-⑥-|
7
口口口③ |①-②-|
口口口口 |③---|
口①口口
口③②口

⑥口⑤⑦
④口口⑦
口口口口 |④-⑤-|
口口口口 |⑥-⑦-|
8
口③②口 |----|
口⑤④口 |①-②-|
口口⑥口 |③-④-|
①口口⑤ |⑤-⑥-|
9
口口口③ |①-②-|
口口口口 |③-④-|
口①口口
口③②④

⑧口口⑧
口口口口
⑦口口⑥ |⑤-⑥-|
⑤口口口 |⑦-⑧-|
10
口④③口 |--①-|
①⑥⑤① |②-③-|
口口⑦口 |④-⑤-|
②口口口 |⑥-⑦-|
11
口口口口 |①-②-|
①口口③ |③-④-|
口②口口
口④口口

口口口⑦
口口口⑦
⑥口口口 |⑤-⑥-|
⑥口⑤口 |--⑦-|
12
口口口口 |①---|
口③口口 |②-③-|
口②①口
口口口口

⑥口口④
口口⑤口
口口⑦口 |④-⑤-|
口口口口 |⑥-⑦-|
13
⑦口口⑥ |①-②-|
口⑤⑤口 |③-④-|
⑥②口⑦ |⑤-⑥-|
①④口③ |--⑦-|
14
口④③口 |①---|
口⑥⑤口 |②-③-|
口口⑦口 |④-⑤-|
②口口① |⑥-⑦-|
15
口口口口 |①-②-|
①口口③ |③-④-|
口②口口
口④口口

⑦口口口
⑦口口口
口口口⑥ |⑤-⑥-|
口口⑤⑥ |--⑦-|
16
口④③口 |①---|
口口口口 |②-③④|
口口①口
口②口口

⑥口口⑤
口口⑦口
口口⑧口 |⑤-⑥-|
口口口口 |⑦-⑧-|
17
⑦口口⑥ |①-②-|
口⑤⑤口 |③-④-|
⑥②口⑦ |⑤-⑥-|
①④口③ |--⑦-|
18
口口口口 |--①-|
④②①③ |②-③-|
③①②④ |④-⑤-|
口⑤⑥口 |⑥---|
19
②③口① |①---|
口④⑤口 |②---|
口⑤④口 |③-④-|
①口③② |⑤---|
20
口③②口 |①-②-|
口口口口 |③-④-|
①⑦⑦④ |⑤-⑥-|
口⑤⑥口 |⑦---|
21
口②①口 |①---|
③④⑤口 |②---|
口⑤④③ |③-④-|
①口口② |⑤---|
22
①口口③ |①-②-|
⑤口口⑥ |③-④-|
②⑦⑦④ |⑤-⑥-|
口口口口 |⑦---|
23
②口口① |①---|
③④⑤口 |②---|
③④⑤口 |③-④-|
①口口② |⑤---|
24
⑦①口⑦ |①-②-|
口⑥⑤④ |③-④-|
②口口口 |⑤-⑥-|
口口③口 |⑦---|
25
口②①口 |①---|
口⑤④③ |②---|
③④⑤口 |③-④-|
①口口② |⑤---|
26
①②①② |①-②-|
③④③④ |③-④-|
⑥⑦⑦⑥ |⑤-⑥-|
口⑤⑤口 |⑦---|
27
口口⑤⑤ |①-②-|
口④口⑤ |③-④-|
③口口口 |⑤---|
②口口① |----|
28
①口口口 |--①-|
②口口口 |②-③-|
口③口④ |④---|
口口④④ |----|
29
④④③② |--①-|
口口口① |②-③-|
⑤口口口 |④---|
⑤口口口 |⑤---|
30
⑤⑤⑤⑤ |①-②-|
口口口口 |③-④-|
口口口④ |⑤---|
口①②③ |----|
31
④④口口 |--①-|
④口③口 |②-③-|
口口口② |④---|
口口口① |----|
32
口口口① |--①-|
口口口② |②-③-|
④口③口 |④---|
④④口口 |----|
33
②③⑤⑤ |--①-|
口①口口 |②-③-|
④④口口 |④---|
口口口口 |⑤---|
34
口口口口 |①---|
口③②口 |--②-|
⑤口口④ |③-④-|
口①①口 |⑤---|
35
②③口① |①---|
口④⑤口 |②---|
口⑤④口 |③-④-|
①口③② |⑤---|
36
口③②口 |①-②-|
口口口口 |③-④-|
①⑦⑦④ |⑤-⑥-|
口⑤⑥口 |⑦---|
37
口②①口 |①---|
③④⑤口 |②---|
口⑤④③ |③-④-|
①口口② |⑤---|
38
①口口③ |①-②-|
⑤口口⑥ |③-④-|
②⑦⑦④ |⑤-⑥-|
口口口口 |⑦---|
39
②口口① |①---|
口⑤④③ |②---|
口⑤④③ |③-④-|
①口口② |⑤---|
40
⑦①口⑦ |①-②-|
口⑥⑤④ |③-④-|
②口口口 |⑤-⑥-|
口口③口 |⑦---|
41
口②①口 |①---|
口⑤④③ |②---|
③④⑤口 |③-④-|
①口口② |⑤---|
42
①②①② |①-②-|
③④③④ |③-④-|
⑥⑦⑦⑥ |⑤-⑥-|
口⑤⑤口 |⑦---|
43
②①②① |①---|
口口口口 |②---|
口⑤④③ |③-④-|
口⑤④③ |⑤---|
44
②①②① |①-②-|
④口④口 |③-④-|
口口口③
口口口③

⑦口⑦口
口⑥口⑥
⑤口口口 |⑤-⑥-|
⑤口口口 |⑦---|
45
口口口口 |①---|
口口口口 |②---|
②口口①
②口口①

口③口③
④口④口
口⑤口⑤ |③-④-|
口口口口 |⑤---|
46
口③口③ |①-②-|
口口口口 |③-④-|
②口①④
②口①④

口口口口
口⑤口⑤
口⑦⑥口 |⑤-⑥-|
口⑦⑥口 |⑦---|
47
①②①② |①---|
口口口口 |②---|
③④⑤口 |③-④-|
③④⑤口 |⑤---|
48
①②①② |①-②-|
口④口④ |③-④-|
③口口口
③口口口

口⑦口⑦
⑥口⑥口
口口口⑤ |⑤-⑥-|
口口口⑤ |⑦---|
49
口口口口 |①---|
口口口口 |②---|
①口口②
①口口②

③口③口
口④口④
⑤口⑤口 |③-④-|
口口口口 |⑤---|
50
③口③口 |①-②-|
口口口口 |③-④-|
④①口②
④①口②

口口口口
⑤口⑤口
口⑥⑦口 |⑤-⑥-|
口⑥⑦口 |⑦---|


不確定度: 0

タグ:

+ タグ編集
  • タグ:

このサイトはreCAPTCHAによって保護されており、Googleの プライバシーポリシー利用規約 が適用されます。

最終更新:2013年04月07日 23:10