オリオンをなぞる
UNISON SQUARE GARDEN

BASIC

Level: 3
BPM: 182
Notes: 184

全程BPM在182附近飄忽不定
1
口口口口 |----|
口口口口 |----|
口口口口 |----|
口口口口 |----|
2
口口口口 |①---|
口口口口 |----|
口口口口 |②---|
①口口② |----|
3
口口口口 |①---|
口口口③ |②---|
口口②口 |③---|
口①口口 |----|
4
①口②口 |①---|
口③口口 |----|
口口口口 |②---|
口口口口 |③---|
5
口口口口 |①---|
口口口口 |----|
①口口口 |----|
口口口口 |----|
6
口口口口 |①---|
口口口口 |----|
口口口口 |----|
口①①口 |----|
7
口口口口 |①---|
口口口口 |----|
口①①口 |----|
口口口口 |----|
8
口②④口 |①---|
口①③口 |②---|
口口口口 |③---|
口口口口 |④---|
9
口口口口 |----|
口口口口 |----|
口口口口 |----|
口口口口 |----|
10
口口口口 |①---|
口口口口 |----|
口②口口 |②---|
①口口口 |----|
11
口口口口 |①---|
口口①口 |----|
口口口口 |②---|
口②口口 |----|
12
口口口口 |①---|
口口口口 |----|
口口①口 |②---|
口口②口 |----|
13
口口口口 |①---|
口④口口 |②---|
口口③① |③---|
口口口② |④---|
14
①②②口 |①---|
口口口口 |----|
口口口口 |----|
口口口口 |--②-|
15
口口口口 |----|
口口口口 |----|
口①①口 |①---|
口口口口 |----|
16
口口口口 |----|
口①①口 |----|
口口口口 |----|
口口口口 |--①-|
17
口口口口 |----|
口口口口 |----|
口口口口 |①---|
口②①口 |②---|
18
口口口口 |①---|
口口口口 |----|
口口②口 |②---|
口口口① |----|
19
口口口口 |①---|
口①口口 |----|
口口口口 |②---|
口口②口 |----|
20
口口口口 |①---|
口口口口 |----|
口①口口 |②---|
口②口口 |----|
21
口口口口 |①---|
口口④口 |②---|
①③口口 |③---|
②口口口 |④---|
22
口②②① |①---|
口口口口 |----|
口口口口 |----|
口口口口 |--②-|
23
口口口口 |----|
口口口口 |----|
口①①口 |①---|
口口口口 |----|
24
口口口口 |----|
口①①口 |----|
口口口口 |----|
口口口口 |--①-|
25
口口口口 |----|
口口口口 |----|
口口口口 |①---|
口①①口 |----|
26
①口口④ |①---|
口口口口 |--②-|
③口口② |--③-|
口口口口 |--④-|
27
口①①口 |--①-|
口口口口 |--②-|
口②②口 |③---|
口③③口 |----|
28
口口口口 |①---|
口口口口 |----|
口口口口 |②---|
①口口② |----|
29
口口口口 |①---|
①②口③ |②---|
口口口口 |③---|
口口口口 |----|
30
口口口口 |①---|
口口口口 |----|
①口口② |②---|
口口口口 |----|
31
①口②③ |①---|
口口口口 |----|
口口口口 |②---|
口口口口 |③---|
32
口口口口 |----|
口口口口 |----|
①口口口 |①---|
口口口口 |----|
33
口口口口 |①---|
口②②口 |②---|
口③③① |③---|
口④④口 |④---|
34
①口口① |----|
口口口口 |----|
口口口口 |①---|
口口口口 |----|
35
口口口口 |①---|
口口口口 |----|
口②口口 |②---|
口口①口 |----|
36
②口口② |①---|
口口①口 |----|
口口口口 |②---|
口口口口 |----|
37
口口口口 |①---|
口口口口 |----|
口口②口 |②---|
口①口口 |----|
38
②口口② |①---|
口①口口 |----|
口口口口 |②---|
口口口口 |----|
39
口口口口 |①---|
口口口口 |②---|
③②口③ |③---|
口口①口 |----|
40
①①①① |①---|
口口口口 |----|
口口口口 |----|
口口口口 |----|
41
口口口口 |----|
口口口口 |----|
口口口口 |----|
口口口口 |----|
42
②口口② |①---|
口口口口 |----|
口口口口 |②---|
①口口① |----|
43
口口口口 |①---|
口口口③ |②---|
口口②口 |③---|
口①口口 |----|
44
①口①口 |①---|
口②口口 |----|
口口口口 |②---|
口口口口 |----|
45
口口口口 |①---|
口口口口 |----|
口口②口 |②---|
①②①口 |----|
46
口口②口 |①---|
口②口口 |----|
口①口口 |②---|
口口①口 |----|
47
②①口② |①---|
口口①口 |----|
口口口口 |②---|
口口口口 |----|
48
口口口口 |①---|
口口口口 |②---|
①口口④ |③---|
③口口② |④---|
49
口口口口 |①---|
口①①口 |----|
口②②口 |②---|
口口口口 |----|
50
②口口② |①---|
口口口口 |----|
口口口口 |②---|
①口口① |----|
51
口口口口 |①---|
口口口③ |②---|
口口②口 |③---|
口①口口 |----|
52
口口口口 |①---|
口口口口 |----|
口口口口 |②---|
①口口② |----|
53
口①①口 |①---|
口口口口 |----|
口口②口 |②---|
口②口口 |----|
54
口口②口 |①---|
口①口口 |----|
口口口口 |②---|
口口口口 |----|
55
口①②口 |①---|
口②①口 |----|
口口口口 |②---|
口口口口 |----|
56
口口口口 |①---|
口口口口 |②---|
①口口④ |③---|
③口口② |④---|
57
口口口口 |①---|
口①①口 |----|
口口口口 |----|
口口口口 |----|
58
口口口口 |①---|
口口口口 |----|
口①①口 |----|
口口口口 |----|
59
口口口口 |①---|
①口口口 |----|
口②口口 |②---|
口口口口 |----|
60
口口口口 |①---|
②口口② |----|
口口口口 |②---|
口口①口 |----|
61
口口口口 |----|
口口口口 |----|
口口口口 |①---|
①口口口 |----|
62
口口口口 |①---|
口口口口 |----|
口口③口 |②---|
口②口① |③---|
63
②口口口 |①---|
口口口① |----|
口口口口 |②---|
口口口口 |----|
64
口口①口 |①---|
口②口口 |②---|
③口口口 |③---|
口口口口 |----|
65
口口口口 |----|
口口口口 |----|
口口口口 |①---|
口①①口 |----|
66
口口口口 |----|
口口口口 |----|
口①①口 |①---|
口口口口 |----|
67
①口口① |----|
口口口口 |----|
口口口口 |①---|
口口口口 |----|
68
口口口口 |①---|
口口口口 |----|
②①①② |②---|
口口口口 |----|


不確定度: 0

タグ:

+ タグ編集
  • タグ:

このサイトはreCAPTCHAによって保護されており、Googleの プライバシーポリシー利用規約 が適用されます。

最終更新:2013年04月07日 23:19