FIGHTERS
三代目 J Soul Brothers

BASIC

Level: 3
BPM: 115
Notes: 260

1
口口口口 |----|
口口口口 |----|
口口口口 |----|
口口口口 |----|
2
口口口口 |----|
口口口口 |----|
口口口口 |----|
口口口口 |----|
3
口口口口 |①---|
口①①口 |----|
②口口③ |②---|
口口口口 |③---|
4
口口口口 |①---|
口①①口 |----|
口口口口 |②---|
②口口③ |③---|
5
口口口口 |①---|
口①①口 |----|
②口口③ |②---|
口口口口 |③---|
6
口口口口 |①---|
口①①口 |----|
口口口口 |----|
口口口口 |----|
7
口口口口 |①---|
口①①口 |②---|
②③④口 |③---|
口口口口 |④---|
8
口口口口 |①---|
口①①口 |②---|
口④③② |③---|
口口口口 |④---|
9
口口口口 |①---|
口①①口 |②---|
口口口口 |③---|
②③④口 |④---|
10
②口口口 |①---|
口①①口 |----|
口口口口 |----|
口口口口 |②---|
11
口①③② |①---|
④口口口 |②---|
口口口口 |③---|
口口口口 |④---|
12
口口口口 |①---|
口①③② |②---|
口④④口 |③---|
口口口口 |④---|
13
口口口口 |①---|
②口口② |----|
③口口③ |②---|
口①①口 |③---|
14
口③③口 |①---|
口②②口 |----|
口口口口 |②---|
①口口① |③---|
15
①口口① |①---|
口②③口 |②---|
口④口口 |③---|
口口口口 |④---|
16
①口口① |①---|
②口口③ |②---|
④口口口 |③---|
口口口口 |④---|
17
①口口① |①---|
口口口口 |②---|
口②③口 |③---|
口④口口 |④---|
18
①口口① |①---|
口口口口 |②---|
②口口③ |③---|
④口口口 |④---|
19
①①①① |①---|
口口口口 |----|
口口口口 |----|
口口口口 |----|
20
③口口① |①---|
④口口② |②---|
口口口口 |③---|
口口口口 |④---|
21
口③③口 |①---|
口②②口 |②---|
④①①口 |③---|
口口口口 |④---|
22
口口②② |①---|
口口口口 |②---|
口①口③ |----|
口口口口 |③---|
23
②②口口 |①---|
口口口口 |②---|
口口①口 |----|
口口口口 |----|
24
③口口① |①---|
④口口② |②---|
口口口口 |③---|
口口口口 |④---|
25
口③③口 |①---|
口②②口 |②---|
④①①口 |③---|
口口口口 |④---|
26
口口②② |①---|
口口口口 |②---|
口①口③ |----|
口口口口 |③---|
27
②②口口 |①---|
口口口口 |②---|
口口①口 |----|
口口口口 |----|
28
口口口口 |①---|
口口口口 |②---|
②口口②
口①①口

口口口口
口口口口
口口口③ |----|
口口口口 |③---|
29
口口口口 |①---|
口②①口 |②---|
③④④口 |③---|
口口口口 |④---|
30
口③③口 |①---|
口口口口 |②---|
②口口② |--③-|
口①①口 |----|
31
口③③口 |①---|
口③③口 |②---|
②口口① |③---|
口口口口 |----|
32
口口口口 |①---|
①口口① |----|
口①①口 |----|
口口口口 |----|
33
口口口口 |①---|
口①①口 |----|
②口口③ |②---|
口口口口 |③---|
34
口口口口 |①---|
口①①口 |----|
口口口口 |②---|
②口口③ |③---|
35
口口口口 |①---|
口①①口 |----|
②口口③ |②---|
口口口口 |③---|
36
口口口口 |①---|
口①①口 |②---|
④②②④ |③---|
口③③口 |④---|
37
①②③④ |①---|
口口口口 |②---|
口口口口 |③---|
口口口口 |④---|
38
口口口口 |①---|
口①②口 |②---|
口③④口 |③---|
口口口口 |④---|
39
①①③③ |①---|
②②④④ |②---|
口口口口 |③---|
口口口口 |④---|
40
口口口口 |①---|
口口口口 |②---|
口③④口 |③---|
口①②口 |④---|
41
①①②② |①---|
口口口口 |----|
口口口口 |②---|
口口口口 |----|
42
口口口口 |①---|
口口口口 |----|
①①②② |②---|
口口口口 |----|
43
口口口口 |①---|
口①②口 |②---|
口③④口 |③---|
口口口口 |④---|
44
口口口口 |①---|
口口口口 |②---|
口口口口 |③---|
①②③④ |④---|
45
口口口口 |①---|
口①①口 |----|
口②②口 |②---|
口口口口 |----|
46
③口口① |①---|
④口口② |②---|
口口口口 |③---|
口口口口 |④---|
47
口③③口 |①---|
口②②口 |②---|
④①①口 |③---|
口口口口 |④---|
48
口口②② |①---|
口口口口 |②---|
口①口③ |----|
口口口口 |③---|
49
②②口口 |①---|
口口口口 |②---|
口口①口 |----|
口口口口 |----|
50
③口口① |①---|
④口口② |②---|
口口口口 |③---|
口口口口 |④---|
51
口③③口 |①---|
口②②口 |②---|
④①①口 |③---|
口口口口 |④---|
52
口口②② |①---|
口口口口 |②---|
口①口③ |----|
口口口口 |③---|
53
②②口口 |①---|
口口口口 |②---|
口口①口 |----|
口口口口 |----|
54
口口口口 |①---|
口口口口 |②---|
②③口② |----|
口①①口 |③---|
55
口口口口 |①---|
口口口口 |----|
口口①口
口口口口

口口口口
口②②口
口③③口 |②---|
口口口口 |③---|
56
口口口口 |①---|
口③口口 |②---|
②口口② |----|
口①①口 |③---|
57
口③③口 |①---|
口③③口 |②---|
②口口① |③---|
口口口口 |----|
58
口口口口 |①---|
①口口① |----|
口①①口 |----|
口口口口 |----|


不確定度: 0

タグ:

+ タグ編集
  • タグ:

このサイトはreCAPTCHAによって保護されており、Googleの プライバシーポリシー利用規約 が適用されます。

最終更新:2013年04月07日 23:08