ダダパラ!!
girl next door

BASIC

Level: 2
BPM: 154
Notes: 177

1
口口口口 |----|
口口口口 |----|
口口口口 |----|
口口口口 |----|
2
口口口口 |----|
口口口口 |----|
口口口口 |----|
口口口口 |----|
3
口口口口 |①---|
口①①口 |----|
口口口口 |----|
口口口口 |----|
4
口口口口 |----|
口口口口 |----|
口口口口 |----|
口口口口 |----|
5
口口口口 |----|
口口口口 |----|
口口口口 |----|
口口口口 |----|
6
口口口口 |----|
口口口口 |----|
口口口口 |----|
口口口口 |----|
7
口口口口 |①---|
口①①口 |----|
口口口口 |----|
口口口口 |----|
8
口口口口 |----|
口口口口 |----|
口口口口 |----|
口口口口 |----|
9
口口口口 |①---|
口②②口 |----|
口①①口 |②---|
口口口口 |----|
10
口①①口 |①---|
口口口口 |----|
口口口口 |----|
口口口口 |----|
11
口①②③ |----|
口口口口 |①---|
口口口口 |②---|
口口口口 |③---|
12
口口口口 |①---|
④③②① |②---|
口口口口 |③---|
口口口口 |④---|
13
口口口口 |①---|
口口口口 |②---|
①②③④ |③---|
口口口口 |④---|
14
口口口口 |①---|
口口口口 |②---|
口口口口 |③---|
④③②① |④---|
15
口口口口 |①---|
口口口口 |----|
①口②口 |②---|
口口口口 |----|
16
口口口口 |①---|
口①口② |----|
口口口口 |②---|
口口口口 |----|
17
口口口口 |①---|
口口口口 |----|
口①口② |②---|
口口口口 |----|
18
口口口口 |①---|
①口②口 |----|
口口口口 |②---|
口口口口 |----|
19
①②③④ |①---|
口口口口 |②---|
口口口口 |③---|
口口口口 |④---|
20
口口口口 |①---|
口③②① |②---|
口口口口 |③---|
口口口口 |----|
21
④③②① |①---|
口口口口 |②---|
口口口口 |③---|
口口口口 |④---|
22
口口口口 |①---|
①②③口 |②---|
口口口口 |③---|
口口口口 |----|
23
口口口口 |①---|
①②③④ |②---|
口口口口 |③---|
口口口口 |④---|
24
口口口口 |①---|
口口口口 |②---|
口③②① |③---|
口口口口 |----|
25
口口口口 |①---|
④③②① |②---|
口口口口 |③---|
口口口口 |④---|
26
口口口口 |①---|
口口口口 |②---|
①②③口 |③---|
口口口口 |----|
27
口口口口 |①---|
口口口口 |----|
口②口口 |②---|
口口①口 |----|
28
口②口口 |①---|
口口①口 |----|
口口口口 |②---|
口口口口 |----|
29
口口①口 |①---|
口②口口 |----|
口口口口 |②---|
口口口口 |----|
30
口口口口 |①---|
口口口口 |----|
口口①口 |②---|
口②口口 |----|
31
口口口口 |①---|
口口口口 |----|
口②口口 |②---|
口口①口 |----|
32
口②口口 |①---|
口口①口 |----|
口口口口 |②---|
口口口口 |----|
33
口口口口 |①---|
②口口① |----|
口口口口 |②---|
口口口口 |----|
34
口口口口 |①---|
口口口口 |----|
口①①口 |----|
口口口口 |----|
35
口口口① |①---|
口口口② |②---|
口口口③ |③---|
口口口④ |④---|
36
口口口口 |①---|
口口③口 |②---|
口口②口 |③---|
口口①口 |----|
37
①口口口 |①---|
②口口口 |②---|
③口口口 |③---|
④口口口 |④---|
38
口口口口 |①---|
口③口口 |②---|
口②口口 |③---|
口①口口 |----|
39
口①①口 |①---|
口口口口 |----|
口口口口 |----|
口口口口 |----|
40
口口口口 |①---|
口①①口 |----|
口口口口 |----|
口口口口 |----|
41
口口口口 |①---|
口口口口 |----|
口口②① |②---|
口口口口 |----|
42
口口口口 |①---|
口口口口 |----|
①②口口 |②---|
口口口口 |----|
43
口口口口 |①---|
口口①② |----|
口口口口 |②---|
口口口口 |----|
44
口口口口 |①---|
②①口口 |----|
口口口口 |②---|
口口口口 |----|
45
口①①口 |①---|
口口口口 |----|
口口口口 |----|
口口口口 |----|
46
口口口口 |----|
口口口口 |----|
口口口口 |----|
口口口口 |----|
47
口口口口 |①---|
口口口口 |----|
口①①口 |----|
口口口口 |----|
48
口口口口 |①---|
口①①口 |----|
口口口口 |----|
口口口口 |----|
49
口口②① |①---|
口口口口 |----|
口口口口 |②---|
口口口口 |----|
50
①②口口 |①---|
口口口口 |----|
口口口口 |②---|
口口口口 |----|
51
口口口口 |①---|
口口①② |----|
口口口口 |②---|
口口口口 |----|
52
口口口口 |①---|
②①口口 |----|
口口口口 |②---|
口口口口 |----|
53
口口口口 |①---|
口口口口 |----|
口①①口 |----|
口口口口 |----|
54
口口口口 |----|
口口口口 |----|
口口口口 |----|
口口口口 |----|
55
①②③④ |①---|
口口口口 |②---|
口口口口 |③---|
口口口口 |④---|
56
口口口口 |①---|
口③②① |②---|
口口口口 |③---|
口口口口 |----|
57
④③②① |①---|
口口口口 |②---|
口口口口 |③---|
口口口口 |④---|
58
口口口口 |①---|
①②③口 |②---|
口口口口 |③---|
口口口口 |----|
59
口口口口 |①---|
①②③④ |②---|
口口口口 |③---|
口口口口 |④---|
60
口口口口 |①---|
口口口口 |②---|
口③②① |③---|
口口口口 |----|
61
口口口口 |①---|
④③②① |②---|
口口口口 |③---|
口口口口 |④---|
62
口口口口 |①---|
口口口口 |②---|
①②③口 |③---|
口口口口 |----|
63
口口口① |①---|
口口口② |②---|
口口口③ |③---|
口口口④ |④---|
64
口口口口 |①---|
口口③口 |②---|
口口②口 |③---|
口口①口 |----|
65
①口口口 |①---|
②口口口 |②---|
③口口口 |③---|
④口口口 |④---|
66
口口口口 |①---|
口③口口 |②---|
口②口口 |③---|
口①口口 |----|
67
②①①② |①---|
口口口口 |----|
口口口口 |②---|
口口口口 |----|
68
口口口口 |①---|
②①①② |----|
口口口口 |②---|
口口口口 |----|
69
口口口口 |①---|
口口口口 |----|
②①①② |②---|
口口口口 |----|
70
口口口口 |①---|
口口口口 |----|
口口口口 |----|
口①①口 |----|
71
口口口口 |①---|
口①①口 |----|
口口口口 |----|
口口口口 |----|


不確定度: 0

タグ:

+ タグ編集
  • タグ:

このサイトはreCAPTCHAによって保護されており、Googleの プライバシーポリシー利用規約 が適用されます。

最終更新:2013年04月07日 23:28