ダダパラ!!
girl next door

EXTREME

Level: 9
BPM: 154
Notes: 674

1
口口口口 |----|
口口口口 |----|
口口口口 |----|
口口口口 |----|
2
口口口口 |----|
口口口口 |----|
口口口口 |----|
口口口口 |----|
3
口口口口 |①---|
①口口① |----|
①口口① |----|
口口口口 |----|
4
口口口口 |----|
口口口口 |----|
口口口口 |----|
口口口口 |----|
5
口口口口 |----|
口口口口 |----|
口口口口 |----|
口口口口 |----|
6
口口口口 |----|
口口口口 |----|
口①①口 |----|
口口口口 |--①-|
7
口口口口 |①---|
①口口① |----|
①口口① |----|
口口口口 |----|
8
口口口口 |----|
口口口口 |----|
口口口口 |----|
口口口口 |----|
9
口口口口 |①---|
①②②① |----|
①②②① |②---|
口口口口 |----|
10
口口口口 |①---|
①④④① |②---|
①③③① |③---|
口②②口 |④---|
11
③口口① |①---|
②口口② |②---|
②口口② |③---|
①口口③ |----|
12
⑥口口④ |--①-|
③⑦⑤③ |②-③-|
②⑤⑦② |④-⑤-|
④①①⑥ |⑥-⑦-|
13
口①①口 |①---|
③⑤④② |②-③-|
②④⑤③ |--④-|
口口口口 |--⑤-|
14
口口口口 |--①-|
③口口③ |②-③-|
②口口②
口①①口

口④④口
口⑤⑤口
口⑥⑥口 |④-⑤-|
口⑦⑦口 |⑥-⑦-|
15
口口口口 |①---|
③口⑤② |②-③-|
②⑤口③ |--④-|
①④④① |--⑤-|
16
①②②口 |--①-|
口口口口 |--②-|
口口口口
口口口①

⑤口口⑤
口④③口
口③④口 |--③-|
口口口口 |④-⑤-|
17
口口口口 |①---|
③口⑤② |②-③-|
②⑤口③ |--④-|
①④④① |--⑤-|
18
①②②口 |--①-|
口口口口 |--②-|
口口口口
口口口①

⑤口口⑤
口④③口
口③④口 |--③-|
口口口口 |④-⑤-|
19
口口口口 |①---|
口口口③ |②-③-|
口③口口
②②①①

口口④口
④口口口
口口口⑤ |--④-|
口口⑤口 |--⑤-|
20
②②口① |--①-|
②口①口 |--②-|
③①口③ |----|
①口口口 |③---|
21
口口口口 |①---|
③口口口 |②-③-|
口口③口
①①②②

口④口口
口口口④
⑤口口口 |--④-|
口⑤口口 |--⑤-|
22
①口②② |--①-|
口①口② |--②-|
③口①③ |----|
口口口① |③---|
23
口口口口 |①---|
口口口③ |②-③-|
口③口口
②②①①

口口④口
④口口口
口口口⑤ |--④-|
口口⑤口 |--⑤-|
24
②②口① |--①-|
②口①口 |--②-|
③①口③ |----|
①口口口 |③---|
25
口口口口 |①---|
③口口口 |②-③-|
口口③口
①①②②

口④口口
口口口④
⑤口口口 |--④-|
口⑤口口 |--⑤-|
26
①口②② |--①-|
口①口② |--②-|
口口①口 |----|
口口口① |----|
27
口口口③ |①---|
①①②口 |②-③-|
口②①①
③口口口

④④口口
⑤⑤口口
口口⑤⑤ |--④-|
口口④④ |--⑤-|
28
④口④② |--①-|
口口①① |②---|
①①口口 |③---|
②③口③ |④---|
29
口③④口 |①---|
③②①④ |②-③-|
④①②③ |--④-|
⑤④③⑤ |--⑤-|
30
②口口② |--①-|
④①①③ |②---|
④口口③ |③---|
口口口口 |④---|
31
③①①② |①---|
口口①口 |②-③-|
口口①口
②口①③

口口口口
⑤⑤口④
④口⑤⑤ |--④-|
口口口口 |--⑤-|
32
④②①① |--①-|
口口②③ |②---|
④②口口 |③---|
①①②③ |④---|
33
⑤③③⑤ |①---|
口②②口 |②-③-|
④口口④ |--④-|
口①①口 |--⑤-|
34
口口口口 |--①-|
③口口③ |--②-|
口①①口 |--③-|
②口口② |----|
35
口②口② |①---|
口①①口 |②-③-|
①口①口
③①③口

④口口口
口⑤⑤口
⑤口⑤口 |--④-|
口⑤口④ |--⑤-|
36
④①②口 |--①-|
①口口② |--②-|
口②口① |③---|
口口①③ |④---|
37
口②口② |①---|
口①①口 |②-③-|
①口①口
③①③口

④口口口
口⑤⑤口
⑤口⑤口 |--④-|
口⑤口④ |--⑤-|
38
③①②④ |--①-|
①⑤⑥② |--②-|
口②口① |③-④-|
口口①口 |⑤-⑥-|
39
③①②口 |①---|
①口口② |--②-|
②④④① |③---|
口②①③ |④---|
40
③①②口 |①---|
①口口② |--②-|
②④④① |③---|
口②①③ |④---|
41
口①②③ |①---|
①口④⑤ |②-③-|
②④口口 |--④-|
③⑤口口 |--⑤-|
42
口②口口 |--①-|
②①口口 |--②-|
口口口②
口口②①

④口③口
口口口③
③口口口 |--③-|
口③口④ |--④-|
43
口口口③ |①---|
口②②口 |②-③-|
口①①口 |----|
③④④口 |--④-|
44
口③③④ |①---|
②口口② |②-③-|
①口口① |--④-|
④口口口 |----|
45
②口口口 |①---|
口③①口 |②-③-|
口①③口 |----|
口口口② |----|
46
口口①口 |①---|
②口③① |②---|
④②口③ |③---|
口④口口 |④---|
47
①①口② |①---|
③口③口 |--②-|
口口④④ |③---|
②③①① |④---|
48
①①口② |①---|
③口③口 |--②-|
口口④④ |③---|
②③①① |④---|
49
口②⑤④ |①---|
口口③① |②-③-|
①③口口 |--④-|
④⑤②口 |--⑤-|
50
②①口口 |--①-|
③口口④ |--②-|
④口口③ |--③-|
口口①② |--④-|
51
口②②③ |①---|
口①①口 |②-③-|
口①①口
③②②口

口口口口
口④④口
口④④口 |----|
口口口口 |--④-|
52
③②②口 |①---|
①口口① |②-③-|
①口口①
口②②③

口口口口
⑤④④⑤
⑤④④⑤ |--④-|
口口口口 |--⑤-|
53
②口口① |①---|
口③③口 |②-③-|
口③③口 |----|
①口口② |----|
54
口口口口 |①---|
①口口① |----|
①口口① |----|
口口口口 |----|
55
口口口口 |①-②-|
③①③① |--③-|
②口口口
口③①口

⑤⑤口口
口口口口
口口口④ |--④-|
口口⑤⑤ |--⑤-|
56
⑤口①口 |--①-|
②②口① |--②-|
①口②② |--③-|
③①口④ |④-⑤-|
57
口口①口 |①---|
③口口② |②-③-|
②口口③
口①口口

口④⑤⑤
口口④口
口④口口 |--④-|
⑤⑤④口 |--⑤-|
58
⑤口口口 |--①-|
②①口① |--②-|
①口①② |--③-|
③口口④ |④-⑤-|
59
口口口口 |①-②-|
③①③① |--③-|
②口口口
口③①口

⑤⑤口口
口口口口
口口口④ |--④-|
口口⑤⑤ |--⑤-|
60
⑤口①口 |--①-|
②②口① |--②-|
①口②② |--③-|
③①口④ |④-⑤-|
61
口口①口 |①---|
③口口② |②-③-|
②口口③
口①口口

口④⑤⑤
口口④口
口④口口 |--④-|
⑤⑤④口 |--⑤-|
62
⑤口口口 |--①-|
②①口① |--②-|
①口①② |--③-|
③口口④ |④-⑤-|
63
口②口② |①---|
口①①口 |②-③-|
①口①口
③①③口

④口口口
口⑤⑤口
⑤口⑤口 |--④-|
口⑤口④ |--⑤-|
64
⑤①②口 |--①-|
①口口② |--②-|
口②口① |--③-|
③口①④ |④-⑤-|
65
口②口② |①---|
口①①口 |②-③-|
①口①口
③①③口

④口口口
口⑤⑤口
⑤口⑤口 |--④-|
口⑤口④ |--⑤-|
66
③①②④ |--①-|
①⑤⑥② |--②-|
口②口① |③-④-|
口口①口 |⑤-⑥-|
67
口口口口 |①---|
③口⑤② |②-③-|
②⑤口③ |--④-|
①④④① |--⑤-|
68
①②②口 |--①-|
口口口口 |--②-|
口口口口
口口口①

⑤口口⑤
口④③口
口③④口 |--③-|
口口口口 |④-⑤-|
69
口口口口 |①---|
③口⑤② |②-③-|
②⑤口③ |--④-|
①④④① |--⑤-|
70
①口口口 |--①-|
②口口② |--②-|
③口口③ |③---|
口口口① |----|
71
口口口口 |①---|
口口口口 |----|
口口口口 |----|
①口口① |----|


不確定度: 0

タグ:

+ タグ編集
  • タグ:

このサイトはreCAPTCHAによって保護されており、Googleの プライバシーポリシー利用規約 が適用されます。

最終更新:2013年04月07日 23:27