JOMANDA
DJ YOSHITAKA
ADVANCED
Level: 9
BPM: 90-195
Notes: 757
BPM: 195
1
口口口口 |----|
口口口口 |----|
口口口口 |----|
口口口口 |----|
2
口口口口 |①---|
①②口口 |②---|
③④口口 |③---|
口口⑤口 |④-⑤-|
3
口口④⑤ |--①-|
口口③口 |--②-|
口口①② |--③-|
口口口口 |④-⑤-|
4
口口口口 |①---|
①②口口 |②---|
③④口口 |③---|
口口⑤口 |④-⑤-|
5
口口④口 |--①-|
口口③口 |--②-|
口口①② |--③-|
口口口口 |④---|
6
口口口口 |①---|
①②口口 |②---|
③④口口 |③---|
口口⑤口 |④-⑤-|
7
口口④⑤ |--①-|
口口③口 |--②-|
口口①② |--③-|
口口口口 |④-⑤-|
8
口口口口 |①---|
①②口口 |②---|
③④口口 |③---|
口口口口 |④---|
9
口口④⑥ |①---|
口口③⑤ |②---|
口口①② |③-④-|
口口口口 |⑤-⑥-|
10
口口口口 |①---|
①②口口 |②---|
③④口口 |③---|
口口⑤口 |④-⑤-|
11
口口④⑤ |--①-|
口口③口 |--②-|
口口①② |--③-|
口口口口 |④-⑤-|
12
口口口口 |①---|
①②口口 |②---|
③④口口 |③---|
口口⑤口 |④-⑤-|
13
口口④口 |--①-|
口口③口 |--②-|
口口①② |--③-|
口口口口 |④---|
14
口口口口 |①---|
①②口口 |②---|
③④口口 |③---|
口口口口 |④---|
15
口口口口 |①---|
口口③④ |②---|
口口①② |③---|
口口口口 |④---|
16
口口口口 |①---|
①②口口 |②---|
③④口口 |③---|
口口口口 |④---|
17
口口口③ |①--②|
②口口口 |--③-|
口口①口 |----|
口口口口 |----|
18
口①②口 |①-②-|
口③④口 |③-④-|
⑤口口⑥ |--⑤-|
口口口口 |--⑥-|
19
口口口口 |--①-|
口口口口 |--②-|
口口③口 |--③-|
①④⑤② |④-⑤-|
20
⑧①②口 |①-②-|
口③口口 |③-④-|
口④⑤口 |⑤-⑥-|
口⑥⑦口 |⑦-⑧-|
21
口口口① |①-②-|
②口口③ |③-④-|
④口口⑤ |⑤-⑥-|
⑥口⑧⑦ |⑦-⑧-|
22
口①②口 |①-②-|
口③④口 |③-④-|
⑤口口⑥ |--⑤-|
口口口口 |--⑥-|
23
口口口③ |--①-|
④口口⑤ |--②-|
口口口口 |--③-|
①口口② |④-⑤-|
24
⑥①②口 |①-②-|
口③④口 |③-④-|
口口口口 |--⑤-|
口⑤口口 |--⑥-|
25
口口口① |--①-|
②口口③ |--②-|
口④口口 |--③-|
口口口口 |--④-|
26
口①②口 |①-②-|
口③④口 |③-④-|
⑤口口⑥ |--⑤-|
口口口口 |--⑥-|
27
口口口口 |--①-|
口口口口 |--②-|
口口③口 |--③-|
①④⑤② |④-⑤-|
28
⑧①②口 |①-②-|
口③口口 |③-④-|
口④⑤口 |⑤-⑥-|
口⑥⑦口 |⑦-⑧-|
29
口口口① |①-②-|
②口口③ |③-④-|
④口口⑤ |⑤-⑥-|
⑥口⑧⑦ |⑦-⑧-|
30
口①②口 |①-②-|
口③④口 |③-④-|
⑤口口⑥ |--⑤-|
口口口口 |--⑥-|
31
口口口③ |--①-|
④口口⑤ |--②-|
口口口口 |--③-|
①口口② |④-⑤-|
32
⑥①②口 |①-②-|
口③④口 |③-④-|
口口口口 |--⑤-|
口⑤口口 |--⑥-|
33
口口口① |--①-|
②口口③ |--②-|
④口口口 |--③-|
口口口口 |--④-|
BPM: 160
34
口口口口 |①---|
②②口口 |----|
口口①① |②---|
口口口口 |----|
BPM: 140
35
口口①口 |①---|
口口①口 |----|
口口口口
口口口口
BPM: 120
口口口口
口口口口
口②口口 |②---|
口②口口 |----|
BPM: 90
36
口②③口 |①---|
口④⑤口 |②-③-|
①⑥⑦① |④-⑤-|
口口口口 |⑥-⑦-|
BPM: 95-120
37
⑧口口⑥ |①-②-|
⑤口口⑦ |③-④-|
④口口② |⑤-⑥-|
①口口③ |⑦-⑧-|
BPM: 130-140
38
口②③口 |①---|
口④⑤口 |②-③-|
①⑥⑦① |④-⑤-|
口口口口 |⑥-⑦-|
BPM: 150-170
39
⑧口口⑥ |①-②-|
⑤口口⑦ |③-④-|
④口口② |⑤-⑥-|
①口口③ |⑦-⑧-|
BPM: 180-210
40
口口口口 |①---|
口口口口 |----|
口①①口 |----|
口口口口 |----|
BPM: 210-240
41
口口口口 |①---|
口①①口 |----|
口口口口 |----|
口口口口 |----|
BPM: 250
42
②①①② |①---|
口口口口 |----|
口口口口 |②---|
口口口口 |----|
BPM: 270
43
口口口口 |①---|
①口口① |----|
②口口② |②---|
口口口口 |----|
BPM: 300
44
口口口口 |①---|
口口口口 |----|
口口口口 |----|
①①①① |----|
45
口口口口 |----|
口口口口 |----|
口口口口 |----|
口口口口 |----|
46
口口口口 |----|
口口口口 |----|
口口口口 |----|
口口口口 |----|
47
口口口口 |----|
口口口口 |----|
口口口口 |----|
口口口口 |----|
48
口口口口 |----|
口口口口 |----|
口口口口 |----|
口口口口 |----|
BPM: 195
49
①③④② |①--②|
⑤①②⑥ |--③-|
⑥③④⑤ |-④--|
口口口口 |⑤-⑥-|
50
①③④② |①--②|
口⑤口⑤ |--③-|
⑤口⑤口 |-④--|
②④③① |⑤---|
51
①④口② |①--②|
口⑤④⑤ |--③-|
⑤③⑤口 |-④--|
②口③① |⑤---|
52
①④④② |①--②|
口⑤口⑤ |--③-|
⑤口⑤口 |-④--|
②③③① |⑤---|
53
①口口② |①--②|
④⑤③⑥ |--③-|
⑥④⑤③ |-④--|
②口口① |⑤-⑥-|
54
①③④② |①--②|
口⑤口⑤ |--③-|
⑤口⑤口 |-④--|
②④③① |⑤---|
55
①④口② |①--②|
口⑤④⑤ |--③-|
⑤③⑤口 |-④--|
②口③① |⑤---|
56
①⑤⑤② |①--②|
口口④口 |--③-|
口④口口 |-④--|
②③③① |⑤---|
57
①口口口 |①---|
①③口③ |--②-|
③口③① |----|
口②②① |③---|
58
①③④② |①--②|
口⑤口⑤ |--③-|
⑤口⑤口 |-④--|
②④③① |⑤---|
59
①④口② |①--②|
口⑤④⑤ |--③-|
⑤③⑤口 |-④--|
②口③① |⑤---|
60
①④④② |①--②|
口⑤口⑤ |--③-|
⑤口⑤口 |-④--|
②③③① |⑤---|
61
①口口② |①--②|
④⑤③⑥ |--③-|
⑥④⑤③ |-④--|
②口口① |⑤-⑥-|
62
①③④② |①--②|
口⑤口⑤ |--③-|
⑤口⑤口 |-④--|
②④③① |⑤---|
63
①④口② |①--②|
口⑤④⑤ |--③-|
⑤③⑤口 |-④--|
②口③① |⑤---|
64
①⑤⑤② |①--②|
口口④口 |--③-|
口④口口 |-④--|
②③③① |⑤---|
65
①口口口 |①---|
①③口③ |--②-|
③口③① |----|
口②②① |③---|
66
①④⑤① |①---|
口⑥⑦口 |②-③-|
口口口口 |④-⑤-|
口②③口 |⑥-⑦-|
67
③口口④ |①-②-|
⑦口口⑧ |③-④-|
①口口② |⑤-⑥-|
⑤口口⑥ |⑦-⑧-|
68
口①②口 |①-②-|
口③口口 |③-④-|
⑥⑤④⑥ |--⑤-|
④口口⑤ |--⑥-|
69
口①②口 |①-②-|
口③④口 |③-④-|
⑦口口⑧ |⑤-⑥-|
⑤口口⑥ |⑦-⑧-|
70
①①①① |①---|
③③③③ |--②-|
口②②口 |③---|
口④④口 |--④-|
71
口口口口 |①-②-|
⑤⑤⑤⑤ |③-④-|
①口口② |⑤---|
③⑥⑥④ |--⑥-|
72
②⑥⑥④ |①--②|
口口口口 |--③-|
①⑤⑤③ |-④--|
口口口口 |⑤-⑥-|
73
口口口口 |--①-|
②④⑤② |--②-|
③口口③ |--③-|
①口口① |④-⑤-|
74
口口口口 |----|
口口口口 |----|
口口口口 |----|
口口口口 |----|
75
①③④② |①--②|
口⑤口⑤ |--③-|
⑤口⑤口 |-④--|
②④③① |⑤---|
76
①④口② |①--②|
口⑤④⑤ |--③-|
⑤③⑤口 |-④--|
②口③① |⑤---|
77
①④④② |①--②|
口⑤口⑤ |--③-|
⑤口⑤口 |-④--|
②③③① |⑤---|
78
①口口② |①--②|
④⑤③⑥ |--③-|
⑥④⑤③ |-④--|
②口口① |⑤-⑥-|
79
①③④② |①--②|
口⑤口⑤ |--③-|
⑤口⑤口 |-④--|
②④③① |⑤---|
80
①④口② |①--②|
口⑤④⑤ |--③-|
⑤③⑤口 |-④--|
②口③① |⑤---|
81
①⑤⑤② |①--②|
口口④口 |--③-|
口④口口 |-④--|
②③③① |⑤---|
82
①口口② |①--②|
①口口口 |--③-|
口口口①
②③③①
口口口口
⑥⑤④⑤
⑤④⑤⑥ |-④--|
口口口口 |⑤-⑥-|
83
①③④② |①--②|
口⑤口⑤ |--③-|
⑤口⑤口 |-④--|
②④③① |⑤---|
84
①④口② |①--②|
口⑤④⑤ |--③-|
⑤③⑤口 |-④--|
②口③① |⑤---|
85
①④④② |①--②|
口⑤口⑤ |--③-|
⑤口⑤口 |-④--|
②③③① |⑤---|
86
①口口② |①--②|
④⑤③⑥ |--③-|
⑥④⑤③ |-④--|
②口口① |⑤-⑥-|
87
①③④② |①--②|
口⑤口⑤ |--③-|
⑤口⑤口 |-④--|
②④③① |⑤---|
88
①④口② |①--②|
口⑤④⑤ |--③-|
⑤③⑤口 |-④--|
②口③① |⑤---|
89
①⑤⑤② |①--②|
口口④口 |--③-|
口④口口 |-④--|
②③③① |⑤---|
90
①口口口 |①---|
①③口③ |--②-|
③口③① |----|
口②②① |③---|
91
①④⑤① |①---|
口⑥⑦口 |②-③-|
口口口口 |④-⑤-|
口②③口 |⑥-⑦-|
92
③口口④ |①-②-|
⑦口口⑧ |③-④-|
①口口② |⑤-⑥-|
⑤口口⑥ |⑦-⑧-|
93
口①②口 |①-②-|
口③口口 |③-④-|
⑥⑤④⑥ |--⑤-|
④口口⑤ |--⑥-|
94
口①②口 |①-②-|
口③④口 |③-④-|
⑦口口⑧ |⑤-⑥-|
⑤口口⑥ |⑦-⑧-|
95
①①①① |①---|
③③③③ |--②-|
口②②口 |③---|
口④④口 |--④-|
96
口口口口 |①-②-|
⑤⑤⑤⑤ |③-④-|
①口口② |⑤---|
③⑥⑥④ |--⑥-|
97
②⑥⑥④ |①--②|
口口口口 |--③-|
①⑤⑤③ |-④--|
口口口口 |⑤-⑥-|
98
口口口口 |--①-|
②④⑤② |--②-|
③口口③ |--③-|
①口口① |④-⑤-|
99
口①①口 |①---|
口口口口 |----|
口①①口 |----|
口口口口 |----|
不确定度: 0