Mother Ship
Sota Fujimori

EXTREME

Level: 10
BPM: 152
Notes: 740

1
口口口口 |----|
口口口口 |----|
口口口口 |----|
口口口口 |----|
2
⑨①③⑩ |①②③④|
口⑤⑥口 |--⑤⑥|
口④②口 |⑦⑧--|
口⑦⑧口 |⑨-⑩-|
3
口口口口 |①-②③|
④②③④ |-④--|
口口口口
①口口①

口⑤⑤口
口口口口
⑧口口⑨ |⑤---|
⑥口口⑦ |⑥⑦⑧⑨|
4
①④口口 |①②-③|
口③④② |--④-|
口口口口
口口口口

口口⑧⑥
口⑨口口
口⑤⑩⑦ |⑤-⑥⑦|
口口⑤口 |-⑧⑨⑩|
5
口⑩⑪口 |-①②-|
①口⑨⑤ |③④⑤-|
④⑦⑧口 |⑥⑦⑧-|
②口⑥③ |⑨⑩⑪-|
6
口口⑥⑦ |①-②-|
口④⑤⑥ |③-④-|
②③④⑤ |⑤--⑥|
①②③口 |--⑦-|
7
①口口口 |①---|
②口口口 |②---|
③④⑤口 |③---|
⑥口口⑦ |④⑤⑥⑦|
8
口口④① |①②-③|
②④③口 |--④-|
口口口口
口口口口

⑥⑧口口
口口⑨口
⑦⑩⑤口 |⑤-⑥⑦|
口⑤口口 |-⑧⑨⑩|
9
口⑪⑩口 |-①②-|
⑤⑨口① |③④⑤-|
口⑧⑦④ |⑥⑦⑧-|
③⑥口② |⑨⑩⑪-|
10
⑧⑦口口 |①-②-|
⑦⑥④⑤ |③-④⑤|
⑥④③② |⑥--⑦|
口③②① |--⑧-|
11
口口②① |①-②-|
口④③② |③-④-|
口口④③
口口口口

⑨⑪⑩⑧
口口口口
⑥⑤口口 |⑤⑥-⑦|
⑦口⑤口 |⑧⑨⑩⑪|
12
口口口口 |①②-③|
④口口① |-④⑤-|
口③口口
⑤②③口

口⑨口⑦
口⑥⑥⑩
口口口⑧ |⑥-⑦⑧|
口⑪口口 |-⑨⑩⑪|
13
④⑦口口 |-①②-|
①口⑤⑧ |③④⑤-|
⑨⑥⑥口 |⑥-⑦⑧|
②⑪③⑩ |⑨⑩⑪-|
14
⑥⑤①口 |-①-②|
③①⑤⑦ |-③④-|
⑧②⑪口 |⑤-⑥⑦|
④⑩②⑨ |⑧⑨⑩⑪|
15
口口口① |-①-②|
①口口口 |-③④-|
口③口②
②口④口

⑨⑪⑥⑩
口⑦口口
⑤口⑧口 |⑤-⑥⑦|
口口口⑤ |⑧⑨⑩⑪|
16
口口口口 |①②-③|
④口口① |-④⑤-|
口③口口
⑤②③口

口⑨口⑦
口⑥⑥⑩
口口口⑧ |⑥-⑦⑧|
口⑪口口 |-⑨⑩⑪|
17
④⑦口口 |-①②-|
①口⑤⑧ |③④⑤-|
⑨⑥⑥口 |⑥-⑦⑧|
②⑪③⑩ |⑨⑩⑪-|
18
口口①口 |-①-②|
③①口口 |-③④-|
口②口口
④口②口

⑥⑤⑪口
口⑩⑤⑦
⑧口口口 |⑤-⑥⑦|
口口口⑨ |⑧⑨⑩⑪|
19
口⑫⑪① |-①-②|
①⑩⑬⑤ |-③④-|
⑥③⑨② |⑤-⑥⑦|
②⑧④⑦ |⑧⑨⑩⑪⑫⑬|
20
③口口② |①②③④|
⑦口口⑤ |⑤⑥⑦⑧|
口④口①
口⑧⑥口

⑬⑫⑪口
口⑩⑭口
⑮口⑨口 |⑨⑩⑪⑫|
口口口口 |-⑬⑭⑮|
21
口口口口 |-①②③|
①④口口 |-④⑤⑥|
口口⑤②
③⑥口口

口⑦口⑩
⑪口口⑧
⑨口口⑫ |-⑦⑧⑨|
⑬口口口 |⑩⑪⑫⑬|
22
①⑪③口 |-①-②|
⑦④⑩口 |③④⑤⑥|
⑬②⑤⑧ |-⑦⑧⑨|
⑨⑥口⑫ |⑩⑪⑫⑬|
23
⑥口③口 |-①-②|
④①口口 |③④⑤⑥|
口口⑤口
口②口口

口⑬口口
口⑪⑩口
⑨口口口 |-⑦⑧⑨|
⑦口⑧⑫ |⑩⑪⑫⑬|
24
③口口② |①②③④|
⑦口口⑤ |⑤⑥⑦⑧|
口④口①
口⑧⑥口

⑬⑫⑪口
口⑩⑭口
⑮口⑨口 |⑨⑩⑪⑫|
口口口口 |-⑬⑭⑮|
25
口口口口 |-①②③|
①④口口 |-④⑤⑥|
口口⑤②
③⑥口口

口⑦口⑩
⑪口口⑧
⑨口口⑫ |-⑦⑧⑨|
⑬口口口 |⑩⑪⑫⑬|
26
①⑪③口 |-①-②|
⑦④⑩口 |③④⑤⑥|
⑬②⑤⑧ |-⑦⑧⑨|
⑨⑥口⑫ |⑩⑪⑫⑬|
27
⑥口③口 |-①-②|
④①口口 |③④⑤⑥|
口口⑤口
口②口口

口⑬口口
口⑪⑩口
⑨口口口 |-⑦⑧⑨|
⑦口⑧⑫ |⑩⑪⑫⑬|
28
⑤口①① |①--②|
⑤口口② |--③-|
口④③② |④---|
口④③口 |--⑤-|
29
口①口③ |①②-③|
口①③口 |--④-|
口口④②
口④②口

⑥口口口
口口口口
口口口⑦ |⑤---|
⑤口⑦⑤ |⑥⑦--|
30
⑤⑤口① |①--②|
口③②① |--③-|
④③②口 |④---|
④口口口 |--⑤-|
31
口口⑤⑤ |①-②-③-|
①⑥⑥① |④⑤-⑥|
口②②口
③④口③

⑩口口口
口口口⑨
口⑧口口 |----|
口口⑦口 |⑦⑧⑨⑩|
32
口②口⑤ |①--②|
口②③⑤ |--③-|
①口③④ |④---|
①口口④ |--⑤-|
33
口口④口 |①--②|
口③④口 |--③④|
①③②口
①口②口

⑤⑤口⑦
口口口⑦
口口口⑧ |⑤---|
⑥口口⑧ |⑥⑦-⑧|
34
②口口口 |①--②|
②③口口 |--③-|
口③口口
口①口口

⑤⑤④口
口口④口
口口口口 |④---|
口口口口 |--⑤-|
35
口口口口 |①-②-③-|
①④④① |④-⑤-⑥-|
⑤②②⑤
③⑥⑥③

口口⑦⑦
⑩口口⑪
口⑧⑨口 |⑦---|
口口口口 |⑧⑨⑩⑪|
36
①①⑤⑩ |①-②③|
⑧⑥②⑦ |④-⑤-|
⑥⑧⑨④ |⑥-⑦⑧|
③③⑥① |⑨-⑩-|
37
①①⑤⑨ |①-②③|
口口②⑦ |④-⑤-|
③口⑧④ |⑥-⑦-|
口③⑥① |⑧-⑨-|
38
①①⑤⑩ |①-②③|
③⑧②⑦ |④-⑤-|
⑧③⑨④ |⑥-⑦⑧|
⑥⑥⑥① |⑨-⑩-|
39
①⑤⑤口 |①-②③|
③⑤②口 |④-⑤-|
口①口④ |----|
口③口① |----|
40
⑤⑨⑧口 |①②③④|
⑥⑪⑩④ |⑤-⑥⑦|
口②③口 |⑧⑨⑩⑪|
①⑦口口 |----|
41
⑧⑦⑥⑤ |①②③④|
口⑧口⑨ |-⑤⑥⑦|
①⑩⑨② |⑧-⑨-|
③口⑩④ |⑩---|
42
⑤⑥口③ |①②③④|
口⑧④口 |⑤-⑥⑦|
①⑩⑨口 |⑧⑨⑩⑪|
口②⑪⑦ |----|
43
口口①口 |①--②|
口③③② |--③-|
①③③口 |----|
口②口口 |----|
44
②口口⑥ |①---|
⑦口口③ |-②③④|
④口口⑧ |⑤---|
①①口⑤ |-⑥⑦⑧|
45
口③③口 |①---|
口②②③ |----|
③②②口 |②---|
①③③口 |③---|
46
①口③② |①---|
口口口③ |②--③|
③口口口 |----|
②③口① |----|
47
①口口口 |----|
口口口口 |---①|
口口口① |----|
口口①口 |----|
48
口①口口 |----|
①口口口 |---①|
口①口口 |----|
口口①口 |----|
49
口①口口 |----|
①口口口 |---①|
口口口口 |----|
口口口① |----|
50
口①口口 |----|
①口口① |---①|
口口①口 |----|
口口口口 |----|
51
口口口口 |----|
①口口口 |---①|
口①①口 |----|
口口口① |----|
52
口口口口 |----|
口口口口 |---①|
口①口① |----|
①口①口 |----|
53
①口①口 |----|
口口口口 |----|
口①口① |①---|
口口口口 |----|
54
⑨④⑤① |①-②-|
口口口口 |③-④⑤|
口⑦口⑥ |-⑥⑦-|
③⑧②口 |⑧-⑨-|
55
口②口① |①-②-|
口④⑤口 |③-④⑤|
口口口口
口口③口

口口口⑨
口口口口
⑦口⑥口 |-⑥⑦-|
口⑧口口 |⑧-⑨-|
56
①口⑥口 |①-②③|
⑨③②口 |-④⑤-|
④口⑤⑦ |⑥-⑦-|
口⑧口口 |⑧-⑨-|
57
口⑤④口 |①-②③|
⑦⑥口③ |-④⑤-|
口②⑥⑦ |⑥---|
①口口口 |⑦---|
58
⑨④⑤① |①-②-|
口口口口 |③-④⑤|
口⑦口⑥ |-⑥⑦-|
③⑧②口 |⑧-⑨-|
59
口②口① |①-②-|
口④⑤口 |③-④⑤|
口口口口
口口③口

口口口⑨
口口口口
⑦口⑥口 |-⑥⑦-|
口⑧口口 |⑧-⑨-|
60
①口⑥口 |①-②③|
口③②口 |-④⑤-|
④口⑤口 |⑥---|
口⑦口口 |⑦---|
61
口口口口 |①-②-③-|
⑤⑤①① |④---|
④口②② |⑤---|
⑥⑥③③ |⑥---|
62
口口口② |①---|
口口②口 |---②|
口①①口
口口口口

口口口口
口口口③
④④③口 |---③|
⑤⑤口口 |-④-⑤|
63
口①②⑥ |--①②|
口③④⑦ |③④--|
⑤口⑦⑧ |⑤⑥--|
口口⑧口 |⑦-⑧-|
64
③口口口 |①-②-|
①①口口 |---③|
口口口口
②②口口

口口口口
⑤口口口
口④口口 |-④-⑤|
口口口口 |----|
65
③①②口 |①②--|
⑤口④口 |③④⑤⑥|
口口⑥口
口口口口

口⑬⑭⑫
口⑪口⑩
口⑨口⑧ |⑦⑧⑨⑩|
口⑦口口 |⑪⑫⑬⑭|
66
口口口口 |①-②-|
口口口口 |----|
①口口口 |-③--|
②③口口 |----|
67
⑥④⑤口 |①-②③|
口⑥口① |④⑤-⑥|
口①口口
②口口③

口口口⑨
⑧口⑨⑩
⑦⑩口口 |-⑦-⑧|
口⑦口口 |⑨-⑩-|
68
③口口口 |①-②-|
口口口口 |----|
口口①① |③---|
④口②② |④---|
69
⑨⑦⑧⑩ |①②③④|
⑬①⑤⑭ |-⑤-⑥|
⑪口②⑫ |⑦⑧⑨⑩|
口③④⑥ |⑪⑫⑬⑭|
70
口口口口 |①---|
口①①口 |----|
②②②口 |②---|
②口②② |----|


不确定度: 0

タグ:

+ タグ編集
  • タグ:

このサイトはreCAPTCHAによって保護されており、Googleの プライバシーポリシー利用規約 が適用されます。

最終更新:2012年11月27日 22:13