Shine On Me
kors k

EXTREME

Level: 9
BPM: 170
Notes: 932

1
口口口口 |----|
口口口口 |----|
口口口口 |----|
口口口口 |----|
2
②口口② |①---|
④①①④ |②---|
②③③② |③---|
④口口④ |④---|
3
②口口② |①---|
④①①④ |②---|
②③③② |③---|
④口口④ |④---|
4
②口口② |①---|
④①①④ |②---|
②③③② |③---|
④口口④ |④---|
5
口②②口 |①---|
④①①④ |-②--|
③②②③ |③---|
口①①口 |④---|
6
口口口口 |①-②-|
口口④⑤ |--③-|
③②⑥口 |④-⑤-|
①①④⑤ |--⑥-|
7
③②口口 |--①-|
口口口口 |②-③-|
口口口①
口口口口

口口⑤⑦
④⑥口口
口口⑤⑦ |④-⑤-|
口口口口 |⑥-⑦-|
8
口口口口 |--①-|
口口③④ |--②-|
②①⑤口 |③-④-|
口口③④ |--⑤-|
9
③②口口 |--①-|
口口口口 |②-③-|
口口口①
口口口口

口口⑤⑦
④⑥口口
口口⑤⑦ |④-⑤-|
口口口口 |⑥-⑦-|
10
口口口口 |--①-|
口口③④ |--②-|
②①⑤口 |③-④-|
口口③④ |--⑤-|
11
③②口口 |--①-|
口口口口 |②-③-|
口口口①
口口口口

口口⑤⑦
④⑥口口
口口⑤⑦ |④-⑤-|
口口口口 |⑥-⑦-|
12
口口口口 |--①-|
口口③④ |--②-|
②①⑤口 |③-④-|
口口③④ |--⑤-|
13
③②口口 |--①-|
口口口口 |②-③-|
口口口①
口口口口

口口⑤⑦
④⑥口口
口口⑤⑦ |④-⑤-|
口口口口 |⑥-⑦-|
14
口口口口 |--①-|
口口③④ |--②-|
②①⑤口 |③-④-|
口口③④ |--⑤-|
15
③②口口 |--①-|
口口口口 |②-③-|
口口口①
口口口口

口口⑤⑦
④⑥口口
口口⑤⑦ |④-⑤-|
口口口口 |⑥-⑦-|
16
口口口口 |--①-|
口口③④ |--②-|
②①⑤口 |③-④-|
口口③④ |--⑤-|
17
③②口口 |--①-|
口口口口 |②-③-|
口口口①
口口口口

口口⑤⑦
④⑥口口
口口⑤⑦ |④-⑤-|
口口口口 |⑥-⑦-|
18
口口口口 |--①-|
口口③④ |--②-|
②①⑤口 |③-④-|
口口③④ |--⑤-|
19
③②口口 |--①-|
口口口口 |②-③-|
口口口①
口口口口

口口⑤⑦
④⑥口口
口口⑤⑦ |④-⑤-|
口口口口 |⑥-⑦-|
20
口口口口 |--①-|
口口③④ |--②-|
②①⑤口 |③-④-|
口口③④ |--⑤-|
21
③②口口 |--①-|
口口口口 |②-③-|
口口口①
口口口口

口口⑤⑦
④⑥口口
口口⑤⑦ |④-⑤-|
口口口口 |⑥-⑦-|
22
口口口口 |①-②-|
口口④⑤ |--③-|
③②⑥口 |④-⑤-|
①①④⑤ |--⑥-|
23
③②口口 |--①-|
口口口口 |②-③-|
口口口①
口口口口

口口⑤⑦
④⑥口口
口口⑤⑦ |④-⑤-|
口口口口 |⑥-⑦-|
24
口口口口 |--①-|
口口③④ |--②-|
②①⑤口 |③-④-|
口口③④ |--⑤-|
25
③②口口 |--①-|
口口口口 |②-③-|
口口口①
口口口口

口口⑤⑦
④⑥口口
口口⑤⑦ |④-⑤-|
口口口口 |⑥-⑦-|
26
口口口口 |--①-|
口口③④ |--②-|
②①⑤口 |③-④-|
口口③④ |--⑤-|
27
③②口口 |--①-|
口口口口 |②-③-|
口口口①
口口口口

口口⑤⑦
④⑥口口
口口⑤⑦ |④-⑤-|
口口口口 |⑥-⑦-|
28
口口口口 |--①-|
口口③④ |--②-|
②①⑤口 |③-④-|
口口③④ |--⑤-|
29
口口口口 |--①-|
口口口口 |----|
口口口① |----|
口口口口 |----|
30
口口①③ |①---|
④④②③ |--②-|
③②⑤⑤ |③---|
③①口口 |④-⑤-|
31
口口①⑤ |①---|
③③⑤② |②---|
②⑤④④ |③-④-|
⑤①口口 |⑤---|
32
③①口口 |①---|
③②④④ |--②-|
⑤⑤②③ |③---|
口口①③ |④-⑤-|
33
⑤①口口 |①---|
②⑤③③ |②---|
④④⑤② |③-④-|
口口①⑤ |⑤---|
34
口口①③ |①---|
④④②③ |--②-|
③②⑤⑤ |③---|
③①口口 |④-⑤-|
35
口口①⑤ |①---|
③③⑤② |②---|
②⑤④④ |③-④-|
⑤①口口 |⑤---|
36
③①口口 |①---|
③②④④ |--②-|
⑤⑤②③ |③---|
口口①③ |④-⑤-|
37
⑤①口口 |①---|
②⑤③③ |②---|
④④⑤② |③-④-|
口口①⑤ |⑤---|
38
口口①口 |①---|
①口②口 |--②-|
口②口①
口①口口

口口口③
④④口③
③口⑤⑤ |③---|
③口口口 |④-⑤-|
39
口口①⑤ |①---|
③③⑤② |②---|
②⑤④④ |③-④-|
⑤①口口 |⑤---|
40
③①口口 |①---|
③②④④ |--②-|
⑤⑤②③ |③---|
口口①③ |④-⑤-|
41
⑤①口口 |①---|
②⑤③③ |②---|
④④⑤② |③-④-|
口口①⑤ |⑤---|
42
口口①③ |①---|
④④②③ |--②-|
③②⑤⑤ |③---|
③①口口 |④-⑤-|
43
口口①⑤ |①---|
③③⑤② |②---|
②⑤④④ |③-④-|
⑤①口口 |⑤---|
44
口①口口 |①---|
②口口口 |----|
口口口② |②---|
口口①口 |----|
45
口②口口 |①---|
口口口③ |-②--|
②①①口 |③---|
口口③口 |----|
46
②⑦⑦② |①-②-|
④③③④ |③-④-|
⑥①①⑥ |⑤-⑥-|
口⑤⑤口 |--⑦-|
47
①⑥⑥① |--①-|
③②②③ |②-③-|
⑤口口⑤ |④-⑤-|
口④④口 |--⑥-|
48
①⑥⑥① |--①-|
③②②③ |②-③-|
⑤口口⑤ |④-⑤-|
口④④口 |--⑥-|
49
①⑥⑥① |--①-|
③②②③ |②-③-|
⑤口口⑤ |④-⑤-|
口④④口 |--⑥-|
50
①口口① |--①-|
③②②③ |②-③-|
④口口④ |--④-|
⑥⑤⑤⑥ |⑤-⑥-|
51
①口口① |--①-|
③②②③ |②-③-|
④口口④ |--④-|
⑥⑤⑤⑥ |⑤-⑥-|
52
②①①② |①-②-|
④③③④ |③-④-|
⑥⑤⑤⑥ |⑤-⑥-|
⑧⑦⑦⑧ |⑦-⑧-|
53
①①①① |①---|
③口口③ |②---|
④②②④ |③--④|
⑤口口⑤ |--⑤-|
54
②⑦⑦② |①-②-|
④③③④ |③-④-|
⑥①①⑥ |⑤-⑥-|
口⑤⑤口 |--⑦-|
55
口⑧⑥口 |①-②-|
口③口口 |③-④-|
⑦①①⑤ |⑤-⑥-|
②口④口 |⑦-⑧-|
56
②⑦⑦② |①-②-|
④③③④ |③-④-|
⑥①①⑥ |⑤-⑥-|
口⑤⑤口 |--⑦-|
57
②⑥⑦② |①-②-|
④③③④ |③-④-|
⑤①①⑧ |⑤-⑥-|
口口口口 |⑦-⑧-|
58
②⑦⑦② |①-②-|
④③③④ |③-④-|
⑥①①⑥ |⑤-⑥-|
口⑤⑤口 |--⑦-|
59
口⑧⑥口 |①-②-|
口③口口 |③-④-|
⑦①①⑤ |⑤-⑥-|
②口④口 |⑦-⑧-|
60
②⑦⑦② |①-②-|
④③③④ |③-④-|
⑥①①⑥ |⑤-⑥-|
口⑤⑤口 |--⑦-|
61
口口口口 |①-②-|
口②口④ |③-④-|
口口口口
①口③口

口口口口
⑤口口口
口口口⑥ |--⑤-|
⑦口口口 |⑥-⑦-|
62
②⑦⑦② |①-②-|
④③③④ |③-④-|
⑥①①⑥ |⑤-⑥-|
口⑤⑤口 |--⑦-|
63
口⑧⑥口 |①-②-|
口③口口 |③-④-|
⑦①①⑤ |⑤-⑥-|
②口④口 |⑦-⑧-|
64
②⑦⑦② |①-②-|
④③③④ |③-④-|
⑥①①⑥ |⑤-⑥-|
口⑤⑤口 |--⑦-|
65
②⑥⑦② |①-②-|
④③③④ |③-④-|
⑤①①⑧ |⑤-⑥-|
口口口口 |⑦-⑧-|
66
②⑦⑦② |①-②-|
④③③④ |③-④-|
⑥①①⑥ |⑤-⑥-|
口⑤⑤口 |--⑦-|
67
口⑧⑥口 |①-②-|
口③口口 |③-④-|
⑦①①⑤ |⑤-⑥-|
②口④口 |⑦-⑧-|
68
②⑦⑦② |①-②-|
④③③④ |③-④-|
⑥①①⑥ |⑤-⑥-|
口⑤⑤口 |--⑦-|
69
口⑥⑥口 |①-②-|
口⑤⑤口 |③-④-|
⑦①②⑦ |⑤---|
③口口④ |⑥-⑦-|
70
②⑦⑦② |①-②-|
④③③④ |③-④-|
⑥①①⑥ |⑤-⑥-|
口⑤⑤口 |--⑦-|
71
口⑧⑥口 |①-②-|
口③口口 |③-④-|
⑦①①⑤ |⑤-⑥-|
②口④口 |⑦-⑧-|
72
②⑦⑦② |①-②-|
④③③④ |③-④-|
⑥①①⑥ |⑤-⑥-|
口⑤⑤口 |--⑦-|
73
②⑥⑦② |①-②-|
④③③④ |③-④-|
⑤①①⑧ |⑤-⑥-|
口口口口 |⑦-⑧-|
74
②⑦⑦② |①-②-|
④③③④ |③-④-|
⑥①①⑥ |⑤-⑥-|
口⑤⑤口 |--⑦-|
75
口⑧⑥口 |①-②-|
口③口口 |③-④-|
⑦①①⑤ |⑤-⑥-|
②口④口 |⑦-⑧-|
76
②⑦⑦② |①-②-|
④③③④ |③-④-|
⑥①①⑥ |⑤-⑥-|
口⑤⑤口 |--⑦-|
77
口口口口 |①-②-|
口②口④ |③-④-|
口口口口
①口③口

口口口口
⑤口口口
口口口⑥ |--⑤-|
⑦口口口 |⑥-⑦-|
78
②⑦⑦② |①-②-|
④③③④ |③-④-|
⑥①①⑥ |⑤-⑥-|
口⑤⑤口 |--⑦-|
79
口⑧⑥口 |①-②-|
口③口口 |③-④-|
⑦①①⑤ |⑤-⑥-|
②口④口 |⑦-⑧-|
80
②⑦⑦② |①-②-|
④③③④ |③-④-|
⑥①①⑥ |⑤-⑥-|
口⑤⑤口 |--⑦-|
81
②⑥⑦② |①-②-|
④③③④ |③-④-|
⑤①①⑧ |⑤-⑥-|
口口口口 |⑦-⑧-|
82
②⑦⑦② |①-②-|
④③③④ |③-④-|
⑥①①⑥ |⑤-⑥-|
口⑤⑤口 |--⑦-|
83
口⑧⑥口 |①-②-|
口③口口 |③-④-|
⑦①①⑤ |⑤-⑥-|
②口④口 |⑦-⑧-|
84
②⑦⑦② |①-②-|
④③③④ |③-④-|
⑥①①⑥ |⑤-⑥-|
口⑤⑤口 |--⑦-|
85
⑥口口⑦ |①-②-|
口⑤⑤口 |③-④-|
口①②口 |⑤---|
③口口④ |⑥-⑦-|
86
口①①口 |①---|
②口口② |----|
口①①口 |②---|
口口口口 |----|
87
③口口③ |①---|
口④④口 |----|
①口口① |②---|
②口口② |③-④-|
88
口口口口 |①---|
②口口② |----|
①口口① |②---|
口口口口 |----|
89
⑤口口⑤ |①---|
口④④口 |②---|
口③③口 |③---|
①②②① |④-⑤-|
90
口口口口 |①---|
口口口口 |----|
①口口① |②---|
口②②口 |----|
91
口口口口 |①---|
口②②口 |----|
口①①口 |②---|
口口口口 |----|
92
口①①口 |①---|
口口口口 |----|
口口口口 |----|
口口口口 |----|


不确定度: 0

タグ:

+ タグ編集
  • タグ:

このサイトはreCAPTCHAによって保護されており、Googleの プライバシーポリシー利用規約 が適用されます。

最終更新:2012年11月10日 14:25