フー・フローツ
Nanako

EXTREME

Level: 9
BPM: 180
Notes: 591

1
口口口口 |----|
口口口口 |----|
口口口口 |----|
口口口口 |----|
2
口口口口 |----|
口口口口 |----|
口口口口 |----|
口口口口 |----|
3
口口口口 |----|
口口口口 |----|
口口口口 |----|
口口口口 |----|
4
口口口口 |----|
口口口口 |----|
口口口口 |----|
口口口口 |----|
5
口口口口 |①-②-|
口口①① |--③-|
②口②④ |--④-|
口口③④ |----|
6
口口口口 |----|
口口口口 |----|
口口口口 |----|
口口口口 |----|
7
⑤口口⑤ |①-②-|
①①口口 |--③-|
④②口② |--④-|
④③口口 |--⑤-|
8
口口口口 |----|
口口口口 |----|
口口口口 |----|
口口口口 |----|
9
⑤口口⑤ |①-②-|
①口口① |--③-|
口②③口 |--④-|
④③②④ |--⑤-|
10
口③②口 |----|
口②③口 |①---|
①③②① |②---|
口口口口 |③---|
11
①口口① |①---|
③③口口 |----|
③口口② |②---|
口口②② |--③-|
12
口口口口 |----|
口口口口 |----|
口口口口 |----|
口口口口 |----|
13
口口①口 |①-②-|
口口口口 |③-④-|
④口③口
②口①口

口口⑧口
⑦口⑥⑤
口口口口 |⑤-⑥-|
口口⑧口 |⑦-⑧-|
14
⑧口⑦口 |①-②-|
⑥口⑤④ |③-④-|
③口②口 |⑤-⑥-|
①口口口 |⑦-⑧-|
15
口①口② |①-②-|
口③口④ |③-④-|
口口口口
口①口口

口⑧口口
口口口口
⑤⑥口⑦ |⑤-⑥-|
口⑧口口 |⑦-⑧-|
16
口口口① |①-②-|
口②口③ |③-④-|
④⑤口⑥ |⑤-⑥-|
⑦⑧口⑧ |⑦-⑧-|
17
②口①口 |①-②-|
④口③口 |③-④-|
口口口口
口口①口

口口⑧口
口口口口
⑦口⑥⑤ |⑤-⑥-|
口口⑧口 |⑦-⑧-|
18
①口口口 |①-②-|
③口②口 |③-④-|
⑥口⑤④ |⑤-⑥-|
⑧口⑦口 |⑦-⑧-|
19
⑥⑦⑤⑧ |①-②-|
口②③④ |③-④-|
口①口口 |⑤-⑥-|
口口口口 |⑦-⑧-|
20
口口口口 |----|
口口口② |----|
口口口口 |----|
①口口口 |①-②-|
21
④口口口 |①---|
①⑤口口 |②-③-|
③口口③ |--④-|
口口口② |--⑤-|
22
口口口口 |--①-|
口口口口 |--②-|
口口①口 |--③-|
③④口② |--④-|
23
口口口① |①---|
口③口口 |②-③-|
口口④② |--④-|
口口口⑤ |--⑤-|
24
口口口口 |----|
口口口口 |----|
③口口② |①-②-|
①③②④ |③-④-|
25
①口口③ |①---|
②①③② |②-③-|
口③①口
口口口口

⑤口口口
口口口口
④口口④ |--④-|
口口口⑤ |--⑤-|
26
口①②③ |--①-|
口口④口 |--②-|
口④口③ |--③-|
口②①口 |--④-|
27
口口③口 |①---|
①口口口 |--②-|
②口口④ |③---|
①口③口 |--④-|
28
口①口口 |①---|
口口口口 |----|
口口口口
口①口口

口⑤口口
④口③口
口口口口 |②-③-|
②口④口 |④-⑤-|
29
口口口口 |①---|
口①口口 |②-③-|
③口口③
口口口②

④口口④
口⑤口口
口口口口 |--④-|
口口口口 |--⑤-|
30
口口口口 |--①-|
口口口口 |--②-|
口口①口 |--③-|
③④口② |--④-|
31
口口口① |①---|
口③口口 |②-③-|
口口④② |--④-|
口口口⑤ |--⑤-|
32
口口口口 |----|
口口口口 |----|
③口口② |①-②-|
①③②④ |③-④-|
33
①口口③ |①---|
②①③② |②-③-|
④③①④ |--④-|
⑤⑤口⑤ |--⑤-|
34
④③口③ |--①-|
①①②① |--②-|
口③②③ |--③-|
口口口口 |--④-|
35
口口口口 |①-②-|
口口口① |③-④-|
⑥⑦⑤⑧ |⑤-⑥-|
①②③④ |⑦-⑧-|
36
⑧⑦⑤⑥ |①-②-|
①②③④ |③-④-|
口口口口 |⑤-⑥-|
口口口口 |⑦-⑧-|
37
口口口口 |①---|
①口口④ |②---|
①口口④ |③---|
②口口③ |④---|
38
口口口口 |①---|
口④⑤口 |----|
口②③口 |②-③-|
口①①口 |④-⑤-|
39
②①①② |①---|
③口口③ |②---|
④③③④ |③---|
口④④口 |④---|
40
②②口口 |①---|
口③③口 |②---|
口口④④ |③---|
①口口① |④---|
41
④⑥②① |①-②-|
⑤③口口 |--③-|
口口口口 |④---|
④⑥②口 |⑤-⑥-|
42
口口口② |--①-|
口口口口 |②---|
口④①⑥ |③-④-|
③口⑤② |⑤-⑥-|
43
口①④口 |①---|
②①口④ |②---|
②③口口 |③---|
③口口口 |④---|
44
①①口① |①---|
口口①口 |----|
口口口口 |----|
口口口口 |----|
45
⑧口①⑦ |①-②-|
⑥口⑤口 |③-④-|
④③口口 |⑤-⑥-|
②口①口 |⑦-⑧-|
46
⑧⑦①口 |①-②-|
⑥口⑤口 |③-④-|
④口口③ |⑤-⑥-|
②口①口 |⑦-⑧-|
47
口口口口 |①---|
④⑤⑤④ |②-③-|
⑤①①⑤ |--④-|
②②③③ |--⑤-|
48
口①口② |----|
①口②口 |----|
口口口口 |①---|
口口口口 |②---|
49
口口口口 |①-②-|
口口⑥⑦ |③-④-|
口口⑤口 |⑤---|
③④①② |⑥-⑦-|
50
口口③口 |①-②-|
①②口口 |③---|
口⑥⑦口 |④-⑤-|
④⑤口口 |⑥-⑦-|
51
④④④① |①---|
口③②① |②-③-|
⑤口口口 |--④-|
⑤口口口 |--⑤-|
52
⑦⑥口① |--①-|
口④③② |②-③-|
口口⑤口 |④-⑤-|
口口口口 |⑥-⑦-|
53
⑧口①⑦ |①-②-|
⑥口⑤口 |③-④-|
④③口口 |⑤-⑥-|
②口①口 |⑦-⑧-|
54
⑧⑦①口 |①-②-|
⑥口⑤口 |③-④-|
④口口③ |⑤-⑥-|
②口①口 |⑦-⑧-|
55
口口口口 |①---|
④⑤⑤④ |②-③-|
⑤①①⑤ |--④-|
②②③③ |--⑤-|
56
口①口② |----|
①口②口 |----|
口口口口 |①---|
口口口口 |②---|
57
口口口口 |①-②-|
口口⑥⑦ |③-④-|
口⑤⑤口 |⑤---|
③④①② |⑥-⑦-|
58
口③③口 |①-②-|
①②口口 |③---|
口⑥⑦口 |④-⑤-|
④⑤口口 |⑥-⑦-|
59
⑤⑤④① |①---|
②③①④ |②-③-|
口口口口 |--④-|
口口口口 |--⑤-|
60
口口⑤口 |--①-|
口④③口 |②-③-|
口②口口 |④-⑤-|
①⑦⑥口 |⑥-⑦-|
61
口②口① |①---|
口口②口 |②---|
口③③口 |③---|
口⑤④① |④-⑤-|
62
①口②口 |①---|
口②口口 |②---|
口口口口
①口口口

⑤口口⑤
④口口④
口③③口 |③---|
口口口口 |④-⑤-|
63
口口口口 |①---|
口②②口 |--②-|
①口口① |----|
口①①口 |----|
64
口口①② |①-②-|
④④③口 |③-④-|
⑤⑥口口 |--⑤-|
口口口口 |--⑥-|
65
口口口口 |①---②-|
口口⑤⑥ |--③---|
口口④口 |④---⑤-|
①②③口 |--⑥---|
66
①①②② |①---|
口①口口 |----|
口口口口 |②---|
口口口口 |----|
67
①③口⑤ |①-②-|
口⑥②④ |--③-|
口⑥②④ |④---|
①③口⑤ |⑤-⑥-|
68
口口①口 |--①-|
②口⑤⑥ |②---|
②口③④ |③-④-|
口口①口 |⑤-⑥-|
69
⑩口⑪⑫ |①-②-③-|
⑦口⑧⑨ |④-⑤-⑥-|
④口⑤⑥ |⑦-⑧-⑨-|
①口②③ |⑩-⑪-⑫-|
70
⑩⑪口⑫ |①-②-③-|
⑦⑧口⑨ |④-⑤-⑥-|
④⑤口⑥ |⑦-⑧-⑨-|
①②口③ |⑩-⑪-⑫-|
71
口口①口 |①-②-|
口口口口 |③-④-|
④口③口
②口①口

口口⑧口
⑦口⑥⑤
口口口口 |⑤-⑥-|
口口⑧口 |⑦-⑧-|
72
⑧口⑦口 |①-②-|
⑥口⑤④ |③-④-|
③口②口 |⑤-⑥-|
①口口口 |⑦-⑧-|
73
口①口② |①-②-|
口③口④ |③-④-|
口口口口
口①口口

口⑧口口
口口口口
⑤⑥口⑦ |⑤-⑥-|
口⑧口口 |⑦-⑧-|
74
口口口① |①-②-|
口②口③ |③-④-|
④⑤口⑥ |⑤-⑥-|
⑦⑧口⑧ |⑦-⑧-|
75
②口①口 |①-②-|
④口③口 |③-④-|
口口口口
口口①口

口口⑧口
口口口口
⑦口⑥⑤ |⑤-⑥-|
口口⑧口 |⑦-⑧-|
76
①口口口 |①-②-|
③口②口 |③-④-|
⑥口⑤④ |⑤-⑥-|
⑧口⑦口 |⑦-⑧-|
77
⑥⑦⑤⑧ |①-②-|
口②③④ |③-④-|
口①口口 |⑤-⑥-|
口口口口 |⑦-⑧-|
78
口口口口 |①-②-|
①②③④ |③-④-|
⑥⑦⑤⑧ |⑤-⑥-|
口口口口 |⑦-⑧-|
79
口口口口 |①-②-|
口口口口 |③-④-|
⑥⑦⑤⑧ |⑤-⑥-|
①②③④ |⑦-⑧-|
80
⑥⑦⑤⑧ |①-②-|
①②③④ |③-④-|
口口口口 |⑤-⑥-|
口口口口 |⑦-⑧-|
81
口口口口 |①---|
口口口口 |----|
①①①① |----|
口①①口 |----|


不确定度: 0

タグ:

+ タグ編集
  • タグ:

このサイトはreCAPTCHAによって保護されており、Googleの プライバシーポリシー利用規約 が適用されます。

最終更新:2012年11月27日 22:11