Shining Wizard
96

EXTREME

Level: 10
BPM: 158
Notes: 757

1
口口口口 |----|
口口口口 |----|
口口口口 |----|
口口口口 |----|
2
口①③⑥ |①-②-|
口②⑤口 |③-④-|
口④⑧口 |⑤-⑥-|
口⑦口口 |⑦-⑧-|
3
口①③口 |①-②-|
口②⑤口 |③-④-|
口④口⑥ |⑤-⑥-|
口口⑦口 |⑦-|
4
①①③⑥ |①-②-|
口②⑤口 |③-④-|
口④⑧口 |⑤-⑥-|
口⑦口口 |⑦-⑧-|
5
①①③口 |①-②-|
口②⑤口 |③-④-|
口④口⑥ |⑤-⑥-|
口口⑦口 |⑦-|
6
①①③⑥ |①-②-|
口②⑤口 |③-④-|
口④⑧口 |⑤-⑥-|
口⑦口口 |⑦-⑧-|
7
口①③口 |①-②-|
口②⑤口 |③-④-|
⑥④口⑥ |⑤-⑥-|
口口⑦口 |⑦-|
8
①①③⑥ |①-②-|
口②⑤口 |③-④-|
口④⑧口 |⑤-⑥-|
口⑦口口 |⑦-⑧-|
9
①①③口 |①-②-|
口②⑤口 |③-④-|
④④口⑥ |⑤-⑥-|
⑦口⑦口 |⑦-|
10
①①③⑥ |①-②-|
口②⑤口 |③-④-|
口④⑧口 |⑤-⑥-|
口⑦口口 |⑦-⑧-|
11
口①③口 |①-②-|
口②⑤口 |③-④-|
⑥④口⑥ |⑤-⑥-|
口口⑦口 |⑦-|
12
①①③⑥ |①-②-|
口②⑤口 |③-④-|
口④⑧口 |⑤-⑥-|
口⑦口口 |⑦-⑧-|
13
口①③口 |①-②-|
⑧②⑤口 |③-④-|
④④口⑥ |⑤-⑥-|
⑦口⑦口 |⑦⑧|
14
①①③⑥ |①-②-|
口②⑤口 |③-④-|
④④⑨口 |⑤-⑥-|
⑦⑦⑧⑨ |⑦⑧⑨-|
15
①①③口 |①-②-|
口②⑤口 |③-④-|
④④⑨⑥ |⑤-⑥⑦|
口口⑧⑦ |⑧⑨|
16
①①③⑥ |①-②-|
口②⑤口 |③-④-|
④④⑨口 |⑤-⑥-|
⑦⑦⑧⑨ |⑦⑧⑨-|
17
①①③口 |①-②-|
口②⑤口 |③-④-|
④④⑨⑥ |⑤-⑥⑦|
口口⑧⑦ |⑧⑨|
18
②①⑤⑪ |①②③④|
④③⑨⑧ |⑤⑥⑦⑧|
⑥⑦⑮⑩ |⑨⑩⑪⑫|
⑫⑬⑭口 |⑬⑭⑮-|
19
②①⑤口 |①②③④|
④③⑨⑧ |⑤⑥⑦⑧|
⑥⑦⑫⑪ |⑨⑩⑪⑫|
口⑭⑬⑩ |⑬⑭|
20
②①⑤⑪ |①②③④|
④③⑨⑧ |⑤⑥⑦⑧|
⑥⑦⑮⑩ |⑨⑩⑪⑫|
⑫⑬⑭口 |⑬⑭⑮-|
21
②①⑤口 |①②③④|
④③⑨⑧ |⑤⑥⑦⑧|
⑥⑦⑫⑪ |⑨⑩⑪⑫|
口⑭⑬⑩ |⑬⑭|
22
⑤口③② |①-②③|
口⑥口⑦ |④-⑤-|
④口⑨⑨ |⑥-⑦-|
①⑧口口 |⑧-⑨-|
23
①①口口 |--①-|
口⑤②口 |②-③-|
③③⑥口 |④-⑤-|
口口④口 |⑥-|
24
④口口③ |①-②-|
口⑧⑧口 |③-④-|
口⑥⑦口 |⑤-⑥-|
⑤①口② |⑦-⑧-|
25
口②②口 |--①-|
①口口③ |②-③-|
口⑤⑤口 |--④-|
④口口口 |⑤-|
26
⑤口③② |①-②③|
口⑥口⑦ |④-⑤-|
④口⑨⑨ |⑥-⑦-|
口⑧口① |⑧-⑨-|
27
①①口口 |--①-|
口⑤②口 |②-③-|
③③⑥口 |④-⑤-|
口口④口 |⑥-|
28
③③口口 |①---|
②口口口 |②-③-|
口口口口
口①口口

口口口⑤
口口④④
口口⑥口 |--④-|
口⑥口口 |⑤-⑥-|
29
⑤口口⑥ |--①-|
口④④口 |②-③-|
②①口③ |④-⑤-|
③口①② |⑥-|
30
口②③口 |①-②-|
④⑥⑦⑤ |③-④-|
口①①口 |⑤-⑥-|
口⑧⑧口 |⑦-⑧-|
31
④口②① |--①②|
口口口⑥ |③-④-|
③口口⑤ |--⑤-|
口口口口 |⑥-|
32
口②③① |①-②-|
口④⑤口 |③-④-|
口⑥⑦口 |⑤-⑥-|
⑧口口⑧ |⑦-⑧-|
33
①口口① |--①-|
口②④口 |②-③-|
③口口③ |④-⑤-|
⑤⑥⑥⑤ |⑥-|
34
口②③口 |①-②-|
④⑥⑦⑤ |③-④-|
口①①口 |⑤-⑥-|
口⑧⑧口 |⑦-⑧-|
35
口③③口 |--①-|
②④④口 |②-③-|
口①①口 |--④-|
口口⑥⑤ |⑤⑥|
36
口③③口 |①---|
②⑥⑥口 |②-③-|
⑤①①④ |--④-|
口口口口 |⑤-⑥-|
37
口②②口 |--①-|
①口口口 |②---|
口⑥⑦口 |③-④⑤|
口④⑤③ |⑥⑦|
38
⑤口③② |①-②③|
口⑥①⑦ |④-⑤-|
④口⑨⑨ |⑥-⑦-|
口⑧口口 |⑧-⑨-|
39
①①口口 |--①-|
口⑤②口 |②-③-|
③③⑥口 |④-⑤-|
口⑦④口 |⑥-⑦-|
40
④④②① |①②③-|
⑤口⑦口 |--④-|
③⑥口口 |--⑤-|
口口口口 |⑥-⑦-|
41
口口口口 |①---|
③③口④ |②-③-|
②⑦⑧① |--④-|
口⑤⑥口 |⑤⑥⑦⑧|
42
⑤口③② |①-②③|
口⑥①⑦ |④-⑤-|
④口⑨⑨ |⑥-⑦-|
口⑧口口 |⑧-⑨-|
43
①①口口 |--①-|
口⑤②口 |②-③-|
③③⑥口 |④-⑤-|
口⑦④口 |⑥-⑦-|
44
口①①口 |①---|
口③③口 |②-③-|
②口口口
口口口口

口⑤⑤口
④口口口
口口口口 |--④-|
口口口口 |⑤---|
45
口口口口 |①---|
口②口口 |②-③-|
③口口③
口①①口

口口口口
口口口④
口⑦⑧口 |--④-|
口⑤⑥口 |⑤⑥⑦⑧|
46
⑤口③② |①-②③|
口⑥①⑦ |④-⑤-|
④口⑨⑨ |⑥-⑦-|
口⑧口口 |⑧-⑨-|
47
①①口口 |--①-|
口⑤②口 |②-③-|
③③⑥口 |④-⑤-|
口⑦④口 |⑥-⑦-|
48
④④②① |①②③-|
⑤口⑦口 |--④-|
③⑥口口 |--⑤-|
口口口口 |⑥-⑦-|
49
口口口口 |①---|
③③口④ |②-③-|
②⑦⑧① |--④-|
口⑤⑥口 |⑤⑥⑦⑧|
50
⑤口③② |①-②③|
口⑥①⑦ |④-⑤-|
④口⑨⑨ |⑥-⑦-|
口⑧口口 |⑧-⑨-|
51
①①口口 |--①-|
口⑤②口 |②-③-|
③③⑥口 |④-⑤-|
口⑦④口 |⑥-⑦-|
52
口①①口 |①---|
口③③口 |②-③-|
②口口口
口口口口

口⑤⑤口
④口口口
口口口口 |--④-|
口口口口 |⑤---|
53
口口口口 |①---|
口②口口 |②-③-|
③口口③
口①①口

口口口口
口口口④
口⑦⑧口 |--④-|
口⑤⑥口 |⑤⑥⑦⑧|
54
⑤口③② |①-②③|
口⑥①⑦ |④-⑤-|
④口口口 |⑥-⑦-|
口⑧口⑨ |⑧-⑨-|
55
④口②① |--①②|
口⑤口⑥ |③-④-|
③口口口 |⑤-⑥-|
口⑦口⑧ |⑦-⑧-|
56
⑤口③② |①-②③|
口⑦口⑥ |④-⑤-|
④①①口 |⑥-⑦-|
口⑨口⑧ |⑧-⑨-|
57
④口②① |--①②|
口⑥口⑤ |③-④-|
③口口口 |⑤-⑥-|
口⑧口⑦ |⑦-⑧-|
58
⑤⑥③② |①-②③|
⑩口⑧⑦ |④-⑤-|
④①①口 |⑥-⑦⑧|
⑨口口口 |⑨-⑩-|
59
⑤口③② |①-②③|
口①口口 |④-⑤-|
④口口口
口口口口

口口口口
⑫⑬⑧⑨
口口口口 |⑥⑦⑧⑨|
⑩⑪⑥⑦ |⑩⑪⑫⑬|
60
口②②口 |①---|
口口口口 |--②-|
口①①口 |----|
口口口口 |----|
61
①口口① |①---|
②①①② |--②-|
①②②①
②口口②

口⑥⑦口
口④⑤口
口口口口 |--③-|
口③③口 |④⑤⑥⑦|
62
①口口口 |①-②-|
②口口⑥ |③-④-|
③口口⑤ |⑤-⑥-|
口口口④
63
①口口口 |①-②-|
②口⑦⑥ |③-④-|
③口⑧⑤ |⑤-⑥-|
口口⑨④ |⑦⑧⑨-|
64
①④⑤口 |①-②-|
②⑥⑦口 |③-④⑤|
③⑧⑨口 |⑥⑦⑧⑨|
口口口口
65
口⑥⑦口 |①②③④|
口⑧⑨口 |⑤---|
⑤口口⑤ |⑥⑦⑧⑨|
③①②④
66
①口口口 |①-②-|
②⑥口⑥ |③-④-|
③⑤口⑤ |⑤-⑥-|
口口口④
67
①口口口 |①-②-|
②⑥⑦⑥ |③-④-|
③⑤⑧⑤ |⑤-⑥-|
口口⑨④ |⑦⑧⑨-|
68
①口口口 |①-②-|
②口口⑥ |③-④-|
③口口⑤ |⑤-⑥-|
口口口④
69
①口口④ |①-②-|
②口口口 |③-④-|
③口⑤⑥ |⑤⑥⑦⑧|
口口⑦⑧
70
①①③⑥ |①-②-|
口②⑤口 |③-④-|
④④⑨口 |⑤-⑥-|
⑦⑦⑧⑨ |⑦⑧⑨-|
71
①①③口 |①-②-|
口②⑤口 |③-④-|
④④⑨⑥ |⑤-⑥⑦|
⑧口⑧⑦ |⑧⑨|
72
①①③⑥ |①-②-|
口②⑤口 |③-④-|
④④⑨口 |⑤-⑥-|
⑦⑦⑧⑨ |⑦⑧⑨-|
73
①①③口 |①-②-|
口②⑤口 |③-④-|
④④⑨⑥ |⑤-⑥⑦|
口口⑧⑦ |⑧⑨|
74
②①⑤⑪ |①②③④|
④③⑨⑧ |⑤⑥⑦⑧|
⑥⑦⑮⑩ |⑨⑩⑪⑫|
⑫⑬⑭口 |⑬⑭⑮-|
75
②①⑤口 |①②③④|
④③⑨⑧ |⑤⑥⑦⑧|
⑥⑦⑫⑪ |⑨⑩⑪⑫|
口⑭⑬⑩ |⑬⑭|
76
②①⑤⑪ |①②③④|
④③⑨⑧ |⑤⑥⑦⑧|
⑥⑦⑮⑩ |⑨⑩⑪⑫|
⑫⑬⑭口 |⑬⑭⑮-|
77
②①⑤口 |①②③④|
④③⑨⑧ |⑤⑥⑦⑧|
⑥⑦⑫⑪ |⑨⑩⑪⑫|
口⑭⑬⑩ |⑬⑭|
78
口①口① |①---|
口①口口 |----|
口口口口 |----|
①口口口 |----|


不確定度: 0

タグ:

+ タグ編集
  • タグ:

このサイトはreCAPTCHAによって保護されており、Googleの プライバシーポリシー利用規約 が適用されます。

最終更新:2013年03月29日 19:55