うらもからだも落花微塵
Nanako

BASIC

Level: 4
BPM: 158
Notes: 266

1
口口口口 |----|
口口口口 |----|
口口口口 |----|
口口口口 |----|
2
①口口③ |①-②-|
口②④口 |--③-|
口⑤口口 |--④-|
口口口口 |--⑤-|
3
口③口口 |----|
口口②口 |①---|
口口口① |②---|
口口口口 |③---|
4
口口口口 |①-②-|
口口⑤口 |--③-|
口④②口 |--④-|
③口口① |--⑤-|
5
①口口① |----|
口口口口 |①---|
口口口口 |----|
口口口口 |----|
6
口口口口 |①---|
③口口口 |--②-|
口②口口 |③---|
④④①① |④---|
7
口口口口 |--①-|
口口口② |②---|
③口①④ |③---|
口口口口 |④---|
8
口口口口 |①---|
口口口口 |----|
口②②口 |②---|
口①①口 |----|
9
口②②口 |①---|
口①①口 |----|
口口口口 |②---|
口口口口 |----|
10
口口口口 |①---|
③口口口 |--②-|
口②口口 |③---|
④④①① |④---|
11
口口口口 |--①-|
口口口② |②---|
③口①④ |③---|
口口口口 |④---|
12
口口口口 |①---|
口口口口 |----|
口②②口 |②---|
口①①口 |----|
13
口①①口 |①-②-|
口②②口 |----|
口口口口 |----|
口口口口 |----|
14
①口口口 |①---|
口②口口 |----|
口口口口 |②---|
口口口口 |----|
15
口口口口 |①---|
口口③口 |----|
口②①口 |②---|
口口口口 |③---|
16
口②②① |①---|
口③③口 |----|
口口口口 |②---|
口口口口 |③---|
17
口口口口 |①---|
口口口口 |----|
口①①口 |----|
②口口口 |②---|
18
口口口口 |①---|
口口②② |----|
口①口口 |②---|
口口口口 |----|
19
口口口口 |①---|
①①口口 |②---|
口口②口 |③---|
口④口③ |④---|
20
口口口口 |①---|
口③③口 |----|
口②②口 |②---|
口口①口 |③---|
21
口①①口 |①---|
口口口口 |----|
口口口口 |----|
口口口口 |----|
22
①口口口 |①---|
口②口口 |----|
口口口口 |②---|
口口口口 |----|
23
口口口口 |①---|
口口③口 |----|
口②①口 |②---|
口口口口 |③---|
24
口②②① |①---|
口③③口 |----|
口口口口 |②---|
口口口口 |③---|
25
口口口口 |①---|
口口口口 |----|
口①①口 |----|
②口口口 |②---|
26
口口口口 |①---|
口口②② |----|
口①口口 |②---|
口口口口 |----|
27
口口口口 |①---|
①①口口 |②---|
口口②口 |③---|
口④口③ |④---|
28
口口口口 |①---|
口③③口 |----|
口②②口 |②---|
口口①口 |③---|
29
口①①口 |①---|
口口口口 |----|
口口口口 |----|
口口口口 |----|
30
口口口口 |----|
口口口口 |----|
口口口口 |----|
口①①口 |①---|
31
口口口口 |①-②-|
口口口口 |----|
口②①口 |----|
口口口口 |----|
32
口口口口 |----|
口口口口 |----|
口①①口 |----|
口口口口 |①---|
33
口口口口 |①-②-|
口②①口 |----|
口口口口 |----|
口口口口 |----|
34
口口口口 |----|
口口口口 |----|
口口口口 |----|
口口口口 |----|
35
口②①口 |①-②-|
口口口口 |----|
口口口口 |----|
口口口口 |----|
36
口口口口 |----|
口口口口 |①---|
①①①① |----|
口口口口 |----|
37
口口口① |①---|
口口②口 |----|
口口口口 |②---|
口口口口 |----|
38
口口口口 |①---|
口③口口 |----|
口①②口 |②---|
口口口口 |③---|
39
①②②口 |①---|
口③③口 |----|
口口口口 |②---|
口口口口 |③---|
40
口口口口 |①---|
口口口口 |----|
口①①口 |----|
口口口② |②---|
41
口口口口 |①---|
②②口口 |----|
口口①口 |②---|
口口口口 |----|
42
口口口口 |①---|
口口①① |②---|
口②口口 |③---|
③口④口 |④---|
43
口口口口 |①---|
口②②口 |----|
口口口口 |----|
口①口口 |②---|
44
口①①口 |①---|
口口口口 |----|
口口口口 |----|
口口口口 |----|
45
口口口① |①---|
口口②口 |----|
口口口口 |②---|
口口口口 |----|
46
口口口口 |①---|
口③口口 |----|
口①②口 |②---|
口口口口 |③---|
47
①②②口 |①---|
口③③口 |----|
口口口口 |②---|
口口口口 |③---|
48
口口口口 |①---|
口口口口 |----|
口①①口 |----|
口口口② |②---|
49
口口口口 |①---|
②②口口 |----|
口口①口 |②---|
口口口口 |----|
50
口口口口 |①---|
口口①① |②---|
口②口口 |③---|
③口④口 |④---|
51
口口口口 |①---|
口③③口 |----|
口②②口 |②---|
口①口口 |③---|
52
口①①口 |①---|
口口口口 |----|
口口口口 |----|
口口口口 |----|
53
口口口口 |①---|
①口口① |----|
口口口口 |----|
口口口口 |----|
54
口口口口 |①---|
口口口口 |----|
①口口① |----|
口口口口 |----|
55
口口口口 |①---|
④口口口 |②---|
口③②口 |③---|
口口口① |④---|
56
口口口口 |①---|
②口口② |----|
口口口口 |②---|
口①①口 |----|
57
①口口④ |①---|
口②⑤口 |②---|
口口③口 |③---|
口口口口 |④-⑤-|
58
口口口口 |①---|
口口口口 |----|
③①口③ |②---|
②口口② |③---|
59
口口口口 |①---|
①口口① |----|
口口口口 |----|
口②口口 |②---|
60
④口口口 |①---|
口口口口 |②---|
口②①口 |③---|
口口③口 |④---|
61
口口口④ |①---|
口①⑤口 |②---|
口口②口 |③---|
口口口③ |④-⑤-|
62
口口口口 |①---|
④口口④ |②---|
③①口③ |③---|
②口口② |④---|
63
①口口① |①---|
口口口口 |----|
口口口口 |----|
口口口口 |----|
64
口口口口 |----|
口口口口 |----|
口口口口 |----|
口口口口 |----|
65
口口口口 |①---|
③口口口 |--②-|
口②口口 |③---|
④④①① |④---|
66
口口口口 |--①-|
口口口② |②---|
③口①④ |③---|
口口口口 |④---|
67
口口口口 |①---|
口口口口 |----|
口②②口 |②---|
口①①口 |----|
68
口②②口 |①---|
口①①口 |----|
口口口口 |②---|
口口口口 |----|
69
口口口口 |①---|
③口口口 |--②-|
口②口口 |③---|
④④①① |④---|
70
口口口口 |--①-|
口口口② |②---|
③口①④ |③---|
口口口口 |④---|
71
口口口口 |①---|
口口口口 |----|
口②②口 |②---|
口①①口 |----|
72
口①①口 |①-②-|
口②②口 |----|
口口口口 |----|
口口口口 |----|
73
口口口口 |①---|
口口口口 |----|
口②②口 |②---|
口①①口 |----|
74
口①①口 |①-②-|
口②②口 |----|
口口口口 |----|
口口口口 |----|
75
口①①口 |①-②-|
口②②口 |----|
口口口口 |----|
口口口口 |----|


不确定度: 0

タグ:

+ タグ編集
  • タグ:

このサイトはreCAPTCHAによって保護されており、Googleの プライバシーポリシー利用規約 が適用されます。

最終更新:2012年11月10日 13:58