I'm so Happy
Ryu☆
BASIC
Level: 4
BPM: 181
Notes: 265
1
口口口口 |----|
口口口口 |----|
口口口口 |----|
口口口口 |----|
2
口口口口 |----|
口②口口 |①---|
口①②口 |----|
口口口口 |②---|
3
口口口口 |----|
①口口② |----|
①口口② |①---|
口口口口 |②---|
4
口口口口 |①---|
③①②口 |②---|
③口口口 |③---|
口口口口 |----|
5
口口口口 |①---|
口口口① |----|
口②②① |②---|
口口口口 |----|
6
口口口口 |①---|
③①②口 |②---|
③口口口 |③---|
口口口口 |----|
7
口②②口 |①---|
口口口口 |----|
口口口口 |②---|
口①①口 |----|
8
口口口口 |①---|
③①②口 |②---|
③口口口 |③---|
口口口口 |----|
9
口口口口 |①---|
口口口① |----|
口口口① |②---|
口②②口 |----|
10
口口口口 |①---|
③①②口 |②---|
③口口口 |③---|
口口口口 |----|
11
口②②口 |①---|
口口口口 |----|
口口口口 |②---|
口①①口 |----|
12
口口口口 |----|
口口口口 |----|
口口口口 |----|
口口口口 |----|
13
①口口② |①---|
口口口口 |----|
①口口② |②---|
口口口口 |----|
14
口口口口 |----|
口口口口 |----|
口口口口 |----|
口口口口 |----|
15
口口口口 |①---|
①口口② |----|
口口口口 |②---|
①口口② |----|
16
口口口口 |----|
口口口口 |----|
口口口口 |----|
口口口口 |----|
17
①口口② |①---|
口口口口 |----|
①口口② |②---|
口口口口 |----|
18
口口口口 |----|
口口口口 |----|
口口口口 |----|
口口口口 |----|
19
口口口口 |①---|
口②②口 |----|
口口口口 |②---|
口①①口 |----|
20
①口口② |①---|
口口口口 |②---|
①口口② |----|
口口口口 |----|
21
①口口② |①---|
口口口口 |----|
①口口② |②---|
口口口口 |----|
22
口口口口 |----|
口口口口 |----|
口口口口 |----|
口口口口 |----|
23
口口口口 |①---|
①口口② |----|
口口口口 |②---|
①口口② |----|
24
口口口口 |----|
口口口口 |----|
口口口口 |----|
口口口口 |----|
25
①口口② |①---|
口口口口 |----|
①口口② |②---|
口口口口 |----|
26
口口口口 |----|
口口口口 |----|
口口口口 |----|
口口口口 |----|
27
口口口口 |①---|
口②②口 |----|
口口口口 |②---|
口①①口 |----|
28
①口口② |①---|
口口口口 |②---|
①口口② |----|
口口口口 |----|
29
口口口口 |----|
口①②口 |①---|
口口口口 |②---|
口口口口 |----|
30
口口口口 |①---|
②口口④ |②---|
①口口③ |③---|
口口口口 |④---|
31
④口口④ |①---|
口口口口 |②---|
口①②口 |③---|
③口口③ |④---|
32
口口口口 |①---|
②口口④ |②---|
①口口③ |③---|
口口口口 |④---|
33
③口口③ |①---|
口口口口 |②---|
口①②口 |③---|
④口口④ |④---|
34
口口口口 |①---|
②口口④ |②---|
①口口③ |③---|
口口口口 |④---|
35
④口口④ |①---|
口口口口 |②---|
口①②口 |③---|
③口口③ |④---|
36
口口口口 |①---|
②口口④ |②---|
①口口③ |③---|
口口口口 |④---|
37
④口口④ |①---|
口口口口 |②---|
口①②口 |③---|
③口口③ |④---|
38
口口口口 |①---|
②口口④ |②---|
①口口③ |③---|
口口口口 |④---|
39
④口口④ |①---|
口口口口 |②---|
口①②口 |③---|
③口口③ |④---|
40
口口口口 |①---|
②口口④ |②---|
①口口③ |③---|
口口口口 |④---|
41
③口口③ |①---|
口口口口 |②---|
口①②口 |③---|
④口口④ |④---|
42
口口口口 |①---|
②口口④ |②---|
①口口③ |③---|
口口口口 |④---|
43
④口口④ |①---|
口口口口 |②---|
口①②口 |③---|
③口口③ |④---|
44
口口口口 |①---|
②口口④ |②---|
①口口③ |③---|
口口口口 |④---|
45
口①②口 |①---|
口口口口 |②---|
口③③口 |③---|
口④④口 |④---|
46
①口口② |①---|
口口口口 |----|
口口口口 |②---|
口口口口 |----|
47
口口口口 |①---|
①口口② |----|
口口口口 |②---|
口口口口 |----|
48
口①①口 |①---|
口口口口 |----|
口口口口 |----|
口口口口 |----|
49
口口口口 |①---|
口①①口 |----|
口口口口 |----|
口口口口 |----|
50
口口口口 |①---|
口口口口 |②---|
①②③④ |③---|
口口口口 |④---|
51
口口口口 |①---|
④③②① |②---|
口口口口 |③---|
口口口口 |④---|
52
口口口口 |①---|
口口口口 |②---|
①②③④ |③---|
口口口口 |④---|
53
口①①口 |①---|
口②②口 |②---|
口③③口 |③---|
口④④口 |④---|
54
①口口② |①---|
口口口口 |----|
①口口② |②---|
口口口口 |----|
55
口口口口 |----|
口口口口 |----|
口口口口 |----|
口口口口 |----|
56
口口口口 |①---|
口①②口 |②---|
口④③口 |③---|
口口口口 |④---|
57
①②③④ |①---|
口口口口 |②---|
口口口口 |③---|
口口口口 |④---|
58
口口口口 |①---|
④③②① |②---|
口口口口 |③---|
口口口口 |④---|
59
口口口口 |①---|
口口口口 |②---|
①口③口 |③---|
口②口④ |④---|
60
口口口口 |①---|
①②口口 |②---|
④③口口 |③---|
口口口口 |④---|
61
口口口口 |①---|
口口①② |②---|
口口④③ |③---|
口口口口 |④---|
62
①②③④ |①---|
口口口口 |②---|
口口口口 |③---|
口口口口 |④---|
63
口口口口 |①---|
③口口③ |②---|
口②②口 |③---|
口①①口 |----|
64
口口口口 |①---|
口①②口 |②---|
口④③口 |③---|
口口口口 |④---|
65
①②③④ |①---|
口口口口 |②---|
口口口口 |③---|
口口口口 |④---|
66
口口口口 |①---|
④③②① |②---|
口口口口 |③---|
口口口口 |④---|
67
口口口口 |①---|
口口口口 |②---|
①口③口 |③---|
口②口④ |④---|
68
口口口口 |①---|
①②口口 |②---|
④③口口 |③---|
口口口口 |④---|
69
口口口口 |①---|
口口①② |②---|
口口④③ |③---|
口口口口 |④---|
70
①②③④ |①---|
口口口口 |②---|
口口口口 |③---|
口口口口 |④---|
71
口④④口 |①---|
③口口③ |②---|
口②②口 |③---|
口①①口 |④---|
72
口口口口 |①---|
口①①口 |----|
口口口口 |----|
口口口口 |----|
不确定度: 0