concon
S-C-U

BASIC

Level: 6
BPM: 190
Notes: 452

1
口口口口 |----|
口口口口 |----|
口口口口 |----|
口口口口 |----|
2
口口⑤口 |①-②-|
①②③④ |③-④-|
口口⑥口 |--⑤-|
口口口口 |--⑥-|
3
口口口口 |--①-|
口口①② |②---|
口口口口 |----|
口口口口 |----|
4
口口⑤口 |①-②-|
①②③④ |③-④-|
口口⑥口 |--⑤-|
口口口口 |--⑥-|
5
口口口口 |--①-|
口口①② |②---|
口口口口 |----|
口口口口 |----|
6
口口⑥口 |--①-|
②③口口 |②-③-|
①④⑤口 |④-⑤-|
口口口口 |--⑥-|
7
口⑥口口 |--①-|
口口③② |②-③-|
口⑤④① |④-⑤-|
口口口口 |--⑥-|
8
口口口口 |--①-|
①口口⑥ |②-③-|
②⑤口口 |④-⑤-|
③④口口 |--⑥-|
9
口口口口 |①-②-|
口口口口 |③-④-|
口口④① |----|
口口③② |----|
10
口口⑤口 |①-②-|
①②③④ |③-④-|
口口⑥口 |--⑤-|
口口口口 |--⑥-|
11
口口口口 |--①-|
口口①② |②---|
口口口口 |----|
口口口口 |----|
12
口口⑤口 |①-②-|
①②③④ |③-④-|
口口⑥口 |--⑤-|
口口口口 |--⑥-|
13
口口口口 |--①-|
口口①② |②---|
口口口口 |----|
口口口口 |----|
14
口口⑥口 |--①-|
②③口口 |②-③-|
①④⑤口 |④-⑤-|
口口口口 |--⑥-|
15
口⑥口口 |--①-|
口口③② |②-③-|
口⑤④① |④-⑤-|
口口口口 |--⑥-|
16
口口口口 |--①-|
①口口⑥ |②-③-|
②⑤口口 |④-⑤-|
③④口口 |--⑥-|
17
口⑤口口 |①-②-|
口口口口 |③-④-|
口口④① |----|
口口③② |--⑤-|
18
⑤口①⑤ |①---|
口②③口 |②-③-|
④口口④ |--④-|
口口口口 |--⑤-|
19
口口口口 |--①-|
口③⑤口 |②-③-|
口②口口 |--④-|
口①④口 |--⑤-|
20
口口①口 |①---|
口⑤口口 |②-③-|
②④⑥③ |--④-|
口口口口 |⑤-⑥-|
21
④口口⑤ |①---|
口口①口 |②-③-|
口口口口 |--④-|
②口口③ |⑤---|
22
口口⑤口 |①-②-|
①②③④ |③-④-|
口口⑥口 |--⑤-|
口口口口 |--⑥-|
23
口口口口 |--①-|
口口①② |②---|
口口口口 |----|
口口口口 |----|
24
口口⑤口 |①-②-|
①②③④ |③-④-|
口口⑥口 |--⑤-|
口口口口 |--⑥-|
25
口③口口 |--①-|
口口①② |②---|
口口口口 |----|
口口口口 |--③-|
26
⑤口①⑤ |①---|
口②③口 |②-③-|
④口口④ |--④-|
口口口口 |--⑤-|
27
口口口口 |--①-|
口③⑤口 |②-③-|
口②口口 |--④-|
口①④口 |--⑤-|
28
口口①口 |①---|
口口口口 |②---|
②⑤⑥② |③-④-|
口③④口 |⑤-⑥-|
29
④口③⑤ |--①-|
口①②口 |②-③-|
口口口口 |--④-|
口口口口 |⑤---|
30
口口⑤口 |①-②-|
①②③④ |③-④-|
口口⑥口 |--⑤-|
口口口口 |--⑥-|
31
口口口口 |--①-|
口口①② |②---|
口口口口 |----|
口口口口 |----|
32
口口⑤口 |①-②-|
①②③④ |③-④-|
口口⑥口 |--⑤-|
口口口口 |--⑥-|
33
口口⑦口 |①-②-|
口口⑥口 |③-④-|
⑤①口④ |⑤-⑥-|
口③②口 |--⑦-|
34
口①口口 |①---|
④⑤口口 |--②-|
口口口口 |③---|
②口口③ |④-⑤-|
35
口口口口 |①---|
口口①口 |--②-|
口口口②
口口口口

口口口③
④⑤⑥口
口口口口 |③-④-|
口口口口 |⑤-⑥-|
36
口口口③ |①---|
④⑤口① |--②-|
口口口② |③---|
口口口口 |④-⑤-|
37
口口口③ |①---|
④口①口 |--②-|
⑤⑥口② |③-④-|
口口口口 |⑤-⑥-|
38
口⑦⑥⑤ |①-②-|
口①②口 |③-④-|
口口③④ |--⑤-|
口口口口 |⑥-⑦-|
39
口口口口 |①-②-|
②①口口 |--③-|
⑦⑥⑤口 |④-⑤-|
口口④③ |⑥-⑦-|
40
口口口口 |①-②-|
①②③④ |③-④-|
口口⑦口 |--⑤-|
口口⑥⑤ |⑥-⑦-|
41
口⑤⑥口 |①-②-|
③④⑦口 |--③-|
②①口口 |④-⑤-|
口口口口 |⑥-⑦-|
42
口口口口 |①---|
④⑤口① |--②-|
口口口口 |③---|
②口口③ |④-⑤-|
43
口口口口 |①---|
口口①口 |--②-|
口口口②
口口口口

口口口③
④⑤⑥口
口口口口 |③-④-|
口口口口 |⑤-⑥-|
44
口口口③ |①---|
④⑤口① |--②-|
口口口② |③---|
口口口口 |④-⑤-|
45
口口口③ |①---|
④口①口 |--②-|
⑤⑥口② |③-④-|
口口口口 |⑤-⑥-|
46
口⑦⑥⑤ |①-②-|
口①②口 |③-④-|
口口③④ |--⑤-|
口口口口 |⑥-⑦-|
47
口口口口 |①-②-|
②①口口 |--③-|
⑦⑥⑤口 |④-⑤-|
口口④③ |⑥-⑦-|
48
口③④口 |①-②-|
①②⑤⑥ |③-④-|
口口口口 |⑤-⑥-|
口口⑦⑦ |⑦---|
49
①①口口 |----|
口口②口 |①---|
口②口口 |--②-|
口口口口 |----|
50
口口口口 |①---|
①口口② |②---|
③口口④ |③---|
口口口口 |④---|
51
②口口③ |①---|
口口口口 |--②-|
口口口口 |--③-|
口①①口 |----|
52
口口口口 |①---|
①口口② |②---|
③口口④ |③---|
口口口口 |④---|
53
②口口③ |①---|
口口口口 |--②-|
口口口口 |--③-|
口①①口 |----|
54
口口口口 |①---|
口②②口 |②---|
③口口④ |--③-|
口①①口 |--④-|
55
口①①口 |--①-|
口口口口 |----|
口②②口 |--②-|
口口口口 |----|
56
口①①口 |①---|
③口口④ |--②-|
口口口口 |--③-|
口②②口 |④---|
57
口口口口 |----|
口口口口 |----|
口口口口 |----|
口口口口 |----|
58
口口口口 |①---|
①口口② |②---|
③口口④ |③---|
口口口口 |④---|
59
②口口③ |①---|
口口口口 |--②-|
口口口口 |--③-|
口①①口 |----|
60
口①②口 |①---|
口③④口 |②---|
口口口口 |③---|
口口口口 |④---|
61
口⑥⑥口 |①--②|
口⑤⑤口 |--③-|
③口口④ |-④--|
①口口② |⑤-⑥-|
62
⑤口口⑤ |①---|
①口口① |②-③-|
口②③口 |--④-|
④口口④ |--⑤-|
63
口口口口 |--①-|
口①②口 |②---|
口③③口 |--③-|
口口口口 |----|
64
②②②② |①---|
口口口口 |----|
口口口口 |--②-|
①①①① |----|
65
口口口口 |----|
口口口口 |----|
口口口口 |----|
口口口口 |----|
66
口口口口 |①---|
①口口② |----|
口口口口 |②---|
口口口口 |----|
67
口②②口 |①---|
口口口口 |②---|
口口口口 |----|
口①①口 |----|
68
口口口口 |①---|
口口口口 |----|
①口口② |②---|
口口口口 |----|
69
②口口② |①---|
口口口口 |②---|
口口口口 |----|
①口口① |----|
70
口口口口 |①---|
②②②② |--②-|
③③③③ |----|
①①①① |③---|
71
①①①① |--①-|
②口口② |----|
③口口③ |②---|
口口口口 |③---|
72
口口口口 |①---|
②②②② |--②-|
③③③③ |----|
①①①① |③---|
73
①②④③ |①---|
口口口口 |②---|
口口口口 |③---|
口口口口 |④---|
74
口口口口 |①---|
①口口② |----|
口口口口 |②---|
口口口口 |----|
75
口②②口 |①---|
口口口口 |②---|
口口口口 |----|
口①①口 |----|
76
口口口口 |①---|
口口口口 |----|
①口口② |②---|
口口口口 |----|
77
②口口② |①---|
口口口口 |②---|
口口口口 |----|
①口口① |----|
78
口口口口 |①---|
②②②② |--②-|
③③③③ |----|
①①①① |③---|
79
①①①① |--①-|
口口口口 |----|
口③③口 |②---|
口②②口 |③---|
80
②②②② |①---|
①①①① |②---|
④④④④ |③---|
③③③③ |④---|
81
②②②② |①---|
①①①① |②---|
④④④④ |③---|
③③③③ |④---|
82
口口⑤口 |①-②-|
①②③④ |③-④-|
口口⑥口 |--⑤-|
口口口口 |--⑥-|
83
口口口口 |--①-|
口口①② |②---|
口口口口 |----|
口口口口 |----|


不确定度: 0

タグ:

+ タグ編集
  • タグ:

このサイトはreCAPTCHAによって保護されており、Googleの プライバシーポリシー利用規約 が適用されます。

最終更新:2012年11月10日 13:43