yellow head joe
S-C-U

ADVANCED

Level: 10
BPM: 187
Notes: 754

1
口口口口 |----|
口口口口 |----|
口口口口 |----|
口口口口 |----|
2
口口③口 |----|
③①②口 |----|
口②①③ |①-②-|
口③口口 |--③-|
3
⑤口口① |--①-|
口口口② |②-③-|
③口口口 |④---|
④口口口 |--⑤-|
4
口⑥口口 |①-②-|
①④⑤⑥ |③---|
⑥⑤④② |④-⑤-|
口口⑥③ |--⑥-|
5
③口②① |--①②|
口口口口 |③-④-|
口口口④
口口口口

口口口⑧
⑤口口⑦
口口口口 |⑤-⑥-|
口口口⑥ |--⑦⑧|
6
④③口口 |①-②-|
口口口口 |③-④-|
口口口口
②①口口

口口⑦口
⑦⑤⑥口
口⑥⑤⑦ |⑤-⑥-|
口⑦口口 |--⑦-|
7
⑤口口① |--①-|
口口口② |②-③-|
③口口口 |④---|
④口口口 |--⑤-|
8
口⑥口口 |①-②-|
①④⑤⑥ |③---|
⑥⑤④② |④-⑤-|
口口⑥③ |--⑥-|
9
③口②① |--①②|
口口口口 |③-④-|
口口口④
口口口口

口口口⑧
⑤口口⑦
口口口口 |⑤-⑥-|
口口口⑥ |--⑦⑧|
10
④③口口 |①-②-|
口⑤⑥口 |③-④-|
口⑥⑤口 |⑤-⑥-|
②①口口 |----|
11
口口口⑥ |①②-③|
⑤⑧⑧④ |④-⑤⑥|
③⑦⑦② |--⑦-|
①口口口 |-⑧--|
12
③口⑧③ |①--②|
②⑦口② |--③-|
口④⑥口 |-④⑤-|
口①①⑤ |⑥⑦⑧-|
13
口口口⑥ |①②-③|
⑤⑧⑧④ |④-⑤⑥|
③⑦⑦② |--⑦-|
①口口口 |-⑧--|
14
③口⑧③ |①--②|
②⑦口② |--③-|
口④⑥口 |-④⑤-|
口①①⑤ |⑥⑦⑧-|
15
口口口⑤ |①②-③|
⑥⑦⑦③ |④-⑤⑥|
④⑧⑧① |--⑦-|
②口口口 |-⑧--|
16
口①①口 |①--②|
口口口口 |--③-|
②口口②
口③③口

⑤口⑧口
口⑦④口
口口⑥口 |-④⑤-|
口口口口 |⑥⑦⑧-|
17
口口口⑤ |①②-③|
⑥⑦⑦③ |④-⑤⑥|
④⑧⑧① |--⑦-|
②口口口 |-⑧--|
18
口①①口 |①--②|
口口口口 |--③-|
②口口②
口③③口

⑤口⑧口
口⑦④口
口口⑥口 |-④⑤-|
口口口口 |⑥⑦⑧-|
19
口口口⑥ |①②-③|
⑤⑧⑧④ |④-⑤⑥|
③⑦⑦② |--⑦-|
①口口口 |-⑧--|
20
③口⑧③ |①--②|
②⑦口② |--③-|
口④⑥口 |-④⑤-|
口①①⑤ |⑥⑦⑧-|
21
口口口⑥ |①②-③|
⑤⑧⑧④ |④-⑤⑥|
③⑦⑦② |--⑦-|
①口口口 |-⑧--|
22
③口⑧③ |①--②|
②⑦口② |--③-|
口④⑥口 |-④⑤-|
口①①⑤ |⑥⑦⑧-|
23
口④口⑥ |①②-③|
⑤⑧⑧④ |④-⑤⑥|
③⑦⑦② |--⑦-|
①②口⑥ |-⑧--|
24
③④⑧③ |①--②|
②⑦口② |--③-|
口④⑥口 |-④⑤-|
口①①⑤ |⑥⑦⑧-|
25
③口口③ |-①--|
②⑤⑤② |②--③|
①④④① |--④-|
口口口口 |-⑤--|
26
③口⑧③ |①--②|
②⑦口② |--③-|
口④⑥口 |-④⑤-|
口①①⑤ |⑥⑦⑧-|
27
口⑦口④ |①-②-|
②口⑤口 |③-④-|
口⑥口③ |⑤---|
口口①口 |⑥-⑦-|
28
①口②口 |--①-|
口④⑦④ |②-③-|
③口③⑥ |④-⑤-|
①口②⑤ |⑥-⑦-|
29
口①口⑥ |①-②-|
②⑤⑦口 |③-④-|
口③口口 |--⑤-|
④口口口 |⑥-⑦-|
30
④口③口 |①-②-|
口⑤口口 |--③-|
⑥口口① |④-⑤-|
口⑦②口 |⑥-⑦-|
31
口⑦口④ |①-②-|
②口⑤口 |③-④-|
口⑥口③ |⑤---|
口口①口 |⑥-⑦-|
32
①口②口 |--①-|
口④⑦④ |②-③-|
③口③⑥ |④-⑤-|
①口②⑤ |⑥-⑦-|
33
口①④口 |①--②|
⑥口口③ |--③-|
口口口口 |④--⑤|
口②⑤口 |--⑥-|
34
口①④口 |①--②|
口⑤口③ |--③-|
口口⑥口 |④-⑤-|
口②口口 |⑥---|
35
口⑦口④ |①-②-|
②口⑤口 |③-④-|
口⑥口③ |⑤---|
口口①口 |⑥-⑦-|
36
①口②口 |--①-|
口④⑦④ |②-③-|
③口③⑥ |④-⑤-|
①口②⑤ |⑥-⑦-|
37
口①口⑥ |①-②-|
②⑤⑦口 |③-④-|
口③口口 |--⑤-|
④口口口 |⑥-⑦-|
38
④口③口 |①-②-|
口⑤口口 |--③-|
⑥口口① |④-⑤-|
口⑦②口 |⑥-⑦-|
39
口⑦口④ |①-②-|
②口⑤口 |③-④-|
口⑥口③ |⑤---|
口口①口 |⑥-⑦-|
40
①⑮⑧⑩ |①②③④|
③⑬⑥⑫ |⑤⑥⑦⑧|
⑤⑪④⑭ |⑨⑩⑪⑫|
⑦⑨②⑯ |⑬⑭⑮⑯|
41
①口③口 |①-②-|
②⑤②④ |--③-|
③口⑤口 |--④-|
口④①口 |--⑤-|
42
①⑤口② |--①-|
口口口④ |②---|
口③口口 |--③-|
①口口② |④-⑤-|
43
②口②口 |①--②|
③口③口 |--③-|
①口①口
口口口口

口口口口
口口口口
⑦口⑥口 |--④-|
④口④⑤ |⑤⑥⑦-|
44
口②口② |①--②|
口③口③ |--③-|
口①口①
口口口口

口口口口
口口口口
口⑥口⑦ |--④-|
⑤④口④ |⑤⑥⑦-|
45
②口②口 |①--②|
③⑥③口 |--③-|
①⑤①口 |--④-|
口口口④ |⑤-⑥-|
46
⑤⑮⑥⑯ |①②③④|
⑦⑬⑧⑭ |⑤⑥⑦⑧|
①⑪②⑫ |⑨⑩⑪⑫|
③⑨④⑩ |⑬⑭⑮⑯|
47
②口②口 |①--②|
③口③口 |--③-|
①口①口
口口口口

口口口口
口口口口
⑦口⑥口 |--④-|
④口④⑤ |⑤⑥⑦-|
48
口②口② |①--②|
口③口③ |--③-|
口①口①
口口口口

口口口口
口口口口
口⑥口⑦ |--④-|
⑤④口④ |⑤⑥⑦-|
49
②④②口 |①--②|
③⑥③⑤ |--③-|
①⑧①⑦ |-④⑤-|
口口口口 |⑥⑦-⑧|
50
②⑨④口 |①-②③|
⑤口③⑧ |-④⑤-|
口⑦口口 |--⑥-|
⑥口⑥① |⑦⑧⑨-|
51
②口②口 |①--②|
③口③口 |--③-|
①口①口
口口口口

口口口口
口口口口
⑦口⑥口 |--④-|
④口④⑤ |⑤⑥⑦-|
52
口②口② |①--②|
口③口③ |--③-|
口①口①
口口口口

口口口口
口口口口
口⑥口⑦ |--④-|
⑤④口④ |⑤⑥⑦-|
53
②口②口 |①--②|
③⑥③口 |--③-|
①⑤①口 |--④-|
口口口④ |⑤-⑥-|
54
⑤⑮⑥⑯ |①②③④|
⑦⑬⑧⑭ |⑤⑥⑦⑧|
①⑪②⑫ |⑨⑩⑪⑫|
③⑨④⑩ |⑬⑭⑮⑯|
55
②口②口 |①--②|
③口③口 |--③-|
①口①口
口口口口

口口口口
口口口口
⑦口⑥口 |--④-|
④口④⑤ |⑤⑥⑦-|
56
口②口② |①--②|
口③口③ |--③-|
口①口①
口口口口

口口口口
口口口口
口⑥口⑦ |--④-|
⑤④口④ |⑤⑥⑦-|
57
②④②口 |①--②|
③⑥③⑤ |--③-|
①⑧①⑦ |-④⑤-|
口口口口 |⑥⑦-⑧|
58
口②③口 |①---|
口④⑤口 |----|
口⑥⑦口 |②③④⑤|
口⑧⑨① |⑥⑦⑧⑨|
59
口口口⑥ |①②-③|
⑤⑧⑧④ |④-⑤⑥|
③⑦⑦② |--⑦-|
①口口口 |-⑧--|
60
③口⑨③ |①--②|
②⑧⑥② |--③-|
口④⑦口 |-④⑤⑥|
口①①⑤ |⑦⑧⑨-|
61
口口口⑥ |①②-③|
⑤口口④ |④-⑤⑥|
③口口②
①①①口

口口口口
口⑧⑧口
口⑦⑦⑨ |--⑦-|
口口口口 |-⑧⑨-|
62
③口口③ |①--②|
②口口② |--③-|
口口口口
①①①口

口口⑧口
口⑦口口
口④⑥口 |-④⑤-|
口口⑨⑤ |⑥⑦⑧⑨|
63
⑦口口⑤ |①②-③|
⑥⑧⑧③ |④-⑤⑥|
④⑩⑩① |⑦-⑧-|
②①口⑨ |⑨⑩--|
64
口①①口 |①--②|
口口口口 |③-④-|
②口口②
③④④口

⑦口⑩⑤
口⑨⑥口
口口⑧口 |⑤⑥⑦-|
口口口口 |⑧⑨⑩-|
65
⑦口口⑤ |①②-③|
⑥⑧⑧③ |④-⑤⑥|
④⑩⑩① |⑦-⑧-|
②口口⑨ |⑨⑩--|
66
口①①口 |①--②|
口口口口 |--③-|
②口口②
口③③口

⑤口⑧口
口⑦④口
口口⑥口 |-④⑤-|
口口口口 |⑥⑦⑧-|
67
⑦①口⑥ |①②-③|
⑤⑩⑩④ |④-⑤⑥|
③⑧⑧② |⑦-⑧-|
①口口⑨ |⑨⑩--|
68
④⑤⑩④ |①--②|
②⑨口② |③-④-|
③⑥⑧口 |⑤⑥⑦-|
口①①⑦ |⑧⑨⑩-|
69
口口口⑥ |①②-③|
⑤⑧⑧④ |④-⑤⑥|
③⑦⑦② |--⑦-|
①①①口 |-⑧--|
70
④③⑪④ |①--②|
②⑩口② |③-④-|
口⑥⑨⑧ |⑤⑥⑦⑧|
⑤①①⑦ |⑨⑩⑪-|
71
口④口口 |①②--|
③口⑤口 |③--④|
②⑥口口 |--⑤-|
口①①口 |-⑥--|
72
口口口口 |①--②|
口口口口 |--③-|
口口口③
①①①②

口④⑤口
口⑥⑦口
口⑧⑨口 |④⑤⑥⑦|
口⑩⑪口 |⑧⑨⑩⑪|
73
⑤④③① |-①--|
口③④口 |②--③|
②口口② |--④-|
⑤口口① |-⑤--|
74
⑤口口⑥ |①--②|
①④④① |--③-|
④③②④ |-④--|
⑤②③⑥ |⑤-⑥-|


不确定度: 0

タグ:

+ タグ編集
  • タグ:

このサイトはreCAPTCHAによって保護されており、Googleの プライバシーポリシー利用規約 が適用されます。

最終更新:2012年11月08日 18:41