女子力←パラダイス
SUPER☆GiRLS
EXTREME
Level: 8
BPM: 140
Notes: 685
全程BPM在140附近飄忽不定
1
口口口口 |----|
口口口口 |----|
口口口口 |----|
口口口口 |----|
2
口口口口 |①---|
口口口口 |----|
口口口口 |----|
①口口① |----|
3
口口④口 |①-②-③-|
口③⑥口 |④-⑤-⑥-|
口⑤②口
口①口口
⑧口口⑧
口⑨口口
口口⑨口 |⑦--⑧|
⑦口口⑦ |--⑨-|
4
口①②口 |①---|
②口口① |②---|
①口口②
口②①口
口④口口
口③③④
④③③口 |③---|
口口④口 |--④-|
5
④③①④ |--①-|
①②②③ |②---|
③②②① |③---|
口①③口 |④---|
6
口②①口 |①---|
①③③② |②---|
②③③① |③---|
口①②口 |----|
7
⑥口口口 |①-②-|
①②③④ |③-④-|
口口口⑤ |⑤---|
⑤口口⑥ |⑥---|
8
口①②口 |①---|
②口口① |②---|
①口口②
口②①口
口④口口
口③③④
④③③口 |③---|
口口④口 |--④-|
9
④③①④ |--①-|
①②②③ |②---|
③②②① |③---|
口①③口 |④---|
10
口②①口 |①---|
①③③② |②---|
②③③① |③---|
口①②口 |----|
11
①②口① |①--②|
口口②口 |--③④|
口口口口 |⑤---|
口③④⑤ |----|
12
②②⑤⑤ |①-②-|
口口口口 |--③-|
口口口口 |④-⑤-|
①③⑥④ |--⑥-|
13
①②口口 |①-②-|
②①③③ |③-④-|
⑤口④④ |⑤---|
口⑤口⑥ |--⑥-|
14
⑤⑤②② |①-②-|
口口口口 |--③-|
口口口① |④-⑤-|
④⑥③口 |--⑥-|
15
口口①② |①-②-|
④④②① |③-④-|
③③口⑤ |⑤---|
口口⑤口 |----|
16
②②⑤⑤ |①-②-|
口口口口 |--③-|
口口口口 |④-⑤-|
①③⑥④ |--⑥-|
17
①②口口 |①-②-|
②①③③ |③-④-|
⑤口④④ |⑤---|
口⑤口口 |----|
18
口口口口 |①---|
口①③① |②-③-|
口①①①
口②①口
口④口口
口口口口
口口⑤口 |④-⑤-|
⑥口口⑥ |⑥---|
19
①口口② |①---|
口③③口 |②---|
①④④② |③-④-|
⑤⑤⑤⑤ |⑤---|
20
②②⑤⑤ |①-②-|
口口口口 |--③-|
①口口④ |④-⑤-|
口③⑥口 |--⑥-|
21
①②口口 |①-②-|
②①③③ |③-④-|
⑤口④④ |⑤---|
口⑤口⑥ |--⑥-|
22
⑤⑤②② |①-②-|
口口口口 |--③-|
口口口① |④-⑤-|
④⑥③口 |--⑥-|
23
口口①② |①-②-|
④④②① |③-④-|
③③口⑤ |⑤---|
口口⑤口 |----|
24
②②⑤⑤ |①-②-|
口口口口 |--③-|
口口口口 |④-⑤-|
①③⑥④ |--⑥-|
25
①②口口 |①-②-|
②①③③ |③-④-|
⑤口④④ |⑤---|
口⑤口口 |----|
26
②口口② |①---|
口⑤④③ |②---|
③④⑤口 |③-④-|
①口口① |⑤---|
27
②④④② |①-②-|
口口口口 |③-④-|
口口口口
①③③①
⑦口口⑦
口⑤⑥口
⑦⑥⑤⑦ |⑤-⑥-|
口口口口 |⑦---|
28
④口口口 |----|
口口口① |①---|
③②口口 |②-③-|
口口④① |--④-|
29
口②③① |--①-|
口口口口 |--②-|
口口口口 |--③-|
③①口② |----|
30
⑤④⑤口 |①---|
口①口口 |②-③-|
口口③④ |--④-|
②①③② |--⑤-|
31
口口口口 |-①②-|
口口口口 |----|
口口①口 |----|
口口②口 |----|
32
口⑤口⑤ |----|
①口③口 |①-②-|
口②口口 |③---|
①④③④ |④-⑤-|
33
口口口口 |--①-|
①口①口 |--②-|
口②口② |--③-|
③口③口 |----|
34
口口口口 |①---|
口口④② |--②-|
①①①① |③---|
③③③③ |--④-|
35
②②②② |①---|
口口口口 |②---|
①①①①
口口口口
口口口口
口③③口
④口口④ |③---|
③④④③ |④---|
36
口①①口 |①---|
①口口① |----|
口①①口
口口口口
口口口口
②②②②
③③③③ |----|
口口口口 |--②③|
37
②②③③ |①---|
口口口口 |②-③-|
口口口口
①①①①
口口口口
④⑤口④
口口⑤口 |--④-|
口口口⑤ |--⑤-|
38
③③②① |--①-|
③④④口 |②-③-|
②⑤⑤口 |----|
①口口口 |--④⑤|
39
②口口② |①---|
口口口口 |②-③-|
口口口口
③①①③
口④④口
口④④口
⑤口口⑤ |--④-|
口⑤⑤口 |--⑤-|
40
②③③② |--①-|
③②②③ |--②-|
口①①口 |--③-|
①口口① |----|
41
⑥⑤口口 |----|
②③⑥⑤ |①-②-|
①④②③ |③-④-|
口口①④ |⑤-⑥-|
42
口④口口 |①-②-|
口②口④ |③-④-|
①③口②
口口①③
口口口口
口⑤⑤口
口⑥⑥口 |----|
口口口口 |--⑤⑥|
43
口口口口 |①---|
②口口② |②-③-|
口口口口
③①①③
口⑥⑥口
⑥⑥⑥⑥
口⑤⑤口 |--④-|
口④④口 |⑤-⑥-|
44
口口口口 |----|
①①①① |----|
②②②② |----|
口口口口 |--①②|
45
②②③③ |①---|
口口口口 |②-③-|
口口口口
①①①①
口口口口
④⑤口④
口口⑤口 |--④-|
口口口⑤ |--⑤-|
46
③③②① |--①-|
③④④口 |②-③-|
②⑤⑤口 |----|
①口口口 |--④⑤|
47
②口口② |①---|
口口口口 |②-③-|
口口口口
③①①③
口④④口
口④④口
⑤口口⑤ |--④-|
口⑤⑤口 |--⑤-|
48
②③③② |--①-|
③②②③ |--②-|
口①①口 |--③-|
①口口① |----|
49
⑥⑤口口 |----|
②③⑥⑤ |①-②-|
①④②③ |③-④-|
口口①④ |⑤-⑥-|
50
口③口① |①---|
口口口③ |②-③-|
口②口口 |----|
①口口② |----|
51
⑥⑤口口 |----|
②③⑥⑤ |①-②-|
①④②③ |③-④-|
口口①④ |⑤-⑥-|
52
口④口口 |①-②-|
口②口④ |③-④-|
①③口② |----|
口口①③ |----|
53
①①①① |①---|
口口口口 |②-③-|
口口口口
口②③口
④④④④
⑤⑤⑤⑤
口口口口 |--④-|
口口口口 |--⑤-|
54
④③②⑤ |--①-|
口口⑤口 |--②-|
①①①① |③-④-|
口口口口 |⑤---|
55
口口口口 |①---|
口口口① |----|
①①①① |----|
口口①① |----|
56
口①②口 |①---|
②口口① |②---|
①口口②
口②①口
口④口口
口③③④
④③③口 |③---|
口口④口 |--④-|
57
④③①④ |--①-|
①②②③ |②---|
③②②① |③---|
口①③口 |④---|
58
口②①口 |①---|
①③③② |②---|
②③③① |③---|
口①②口 |----|
59
⑥口口口 |①-②-|
①②③④ |③-④-|
口口口⑤ |⑤---|
⑤口口⑥ |⑥---|
60
口①②口 |①---|
②口口① |②---|
①口口②
口②①口
口④口口
口③③④
④③③口 |③---|
口口④口 |--④-|
61
④③①④ |--①-|
①②②③ |②---|
③②②① |③---|
口①③口 |④---|
62
口②①口 |①---|
①③③② |②---|
②③③① |③---|
口①②口 |----|
63
①②口① |①--②|
口口②口 |--③④|
口口口口 |⑤---|
口③④⑤ |----|
64
④①②④ |①②-③|
口①②口 |-④-⑤|
口口口口
③⑤⑤③
口⑨⑨口
⑥口口⑥
⑦⑦⑧⑧ |-⑥-⑦|
口口口口 |⑧-⑨-|
不確定度: 0