Mynarco
positive MAD-crew

ADVANCED

Level: 7
BPM: 181
Notes: 566

1
口口口口 |----|
口口口口 |----|
口口口口 |----|
口口口口 |----|
2
口口②口 |①---|
口⑤⑥④ |②-③-|
口口③口 |④---|
口口①① |⑤-⑥-|
3
①⑥⑥④ |--①-|
⑤口口口 |②-③-|
③口口② |④-⑤-|
口口口口 |⑥---|
4
②⑥口口 |①---|
口④⑤口 |②-③-|
③口口口 |④---|
①①口口 |⑤-⑥-|
5
口口口① |--①-|
②口口③ |②-③-|
④口口⑤ |④-⑤-|
⑥⑥口口 |⑥---|
6
口口口② |①---|
口口⑥④ |②-③-|
口⑤③口 |④---|
口口①① |⑤-⑥-|
7
①口口② |--①-|
③口口④ |②-③-|
⑤口⑥⑥ |④-⑤-|
口口口口 |⑥---|
8
②口口口 |①---|
④⑥口口 |②-③-|
口③⑤口 |④---|
①①口口 |⑤-⑥-|
9
口②③口 |--①-|
口口①口 |②-③-|
口④口口 |④-⑤-|
⑥⑥⑤口 |⑥---|
10
口口口口 |①---|
口①①口 |--②-|
②口口② |----|
口③③口 |③---|
11
②口③① |①---|
②口③① |②-③-|
口口口口 |----|
口④④口 |④---|
12
口口③② |①---|
口①②③ |--②-|
①口口口 |----|
口口口口 |③---|
13
口口口口 |①---|
①①口口 |②-③-|
口口②② |----|
③③④④ |④---|
14
②口口② |①---|
口①①口 |--②-|
口口口口 |----|
口③③口 |③---|
15
口①①口 |①---|
②口口② |--②-|
④口口③ |--③-|
④口口③ |④---|
16
口口③③ |①---|
口②①口 |--②-|
口②①口 |----|
口口口口 |③---|
17
①①口口 |①---|
口口口口 |--②-|
②口口② |----|
口③③口 |③---|
18
口口①① |①---|
②口④口 |②-③-|
口口③③ |--④-|
⑤⑤口口 |⑤---|
19
③①口口 |①---|
③①口② |②-③-|
口④⑤口 |--④-|
口口⑤口 |⑤---|
20
口口①① |①---|
②口③③ |②-③-|
⑤⑤口口 |--④-|
口口④口 |⑤---|
21
口口口口 |①---|
③②②③ |--②-|
口口口口 |----|
①口口① |③---|
22
口口①① |①---|
口口④口 |②-③-|
②口③③ |--④-|
⑤⑤口口 |⑤---|
23
口①口口 |①---|
③①口② |②-③-|
③口口⑤ |--④-|
口④口⑤ |⑤---|
24
口③③口 |①---|
口②②口 |--②-|
口①①口 |----|
口口口口 |③---|
25
①口口① |①---|
口口口口 |----|
②口口② |②---|
口口口口 |----|
26
口①②口 |①---|
①口口② |----|
口口③口 |②---|
口口口③ |③---|
27
口口口口 |①---|
口①②口 |----|
口②口口 |----|
口口①口 |②---|
28
②②①口 |①---|
口口口口 |----|
③③口口 |②---|
口①口口 |③---|
29
口口①① |①---|
口口口口 |----|
口口口口 |----|
①①口口 |----|
30
口②①口 |①---|
②口口① |----|
口③口口 |②---|
③口口口 |③---|
31
口口口口 |①---|
口②①口 |----|
口口②口 |----|
口①口口 |②---|
32
口①②口 |①---|
口口口口 |----|
口口口口 |②---|
口②①口 |----|
33
③③②② |①---|
①口口① |----|
①口口① |②---|
②②③③ |③---|
34
口口③② |①---|
①口口① |----|
口口口口 |②---|
②③口口 |③---|
35
口①口口 |①---|
口口口口 |----|
口口②口 |----|
口口①② |②---|
36
口②①口 |①---|
②口口① |----|
口③口口 |②---|
③口口口 |③---|
37
口口口口 |①---|
口①①口 |----|
口口口口 |----|
口①①口 |----|
38
②②①口 |①---|
③③口① |----|
口口口口 |②---|
口口口口 |③---|
39
口口②③ |①---|
口口口口 |----|
口口②③ |②---|
①①口口 |③---|
40
口①口口 |①---|
①口口① |----|
②口口口 |②---|
口②口② |----|
41
口口①口 |①---|
口②②① |----|
口①口口 |②---|
③口口③ |③---|
42
②①①口 |①---|
口口口① |②---|
③口口口 |③---|
口③③④ |④---|
43
口⑥④口 |①---|
②①口口 |②---|
口口①② |③-④-|
口⑤③口 |⑤-⑥-|
44
⑦口口⑤ |①-②-|
②口口① |③-④-|
④口口③ |⑤-⑥-|
⑧口口⑥ |⑦-⑧-|
45
口⑧③口 |①-②-|
口②⑦口 |③-④-|
口④⑤口 |⑤-⑥-|
口⑥①口 |⑦-⑧-|
46
口口⑤口 |①---|
①④口① |②-③-|
③口⑥口 |④-⑤-|
②口⑥口 |⑥---|
47
口④口口 |①-②-|
口口③口 |③-④-|
⑦⑤口② |⑤---|
⑥⑤口① |⑥-⑦-|
48
口⑦②口 |①-②-|
口①⑥口 |③---|
口口③⑤ |④-⑤-|
口口③④ |⑥-⑦-|
49
②口口④ |①---|
⑤⑥⑥③ |②-③-|
口①口口 |④-⑤-|
口①口口 |⑥---|
50
口⑤口④ |①---|
口口口③ |②-③-|
⑥①①口 |④-⑤-|
⑥口②口 |⑥---|
51
③口④口 |①-②-|
②口口⑦ |③-④-|
口口口⑤ |⑤---|
口①⑥⑤ |⑥-⑦-|
52
⑥②⑦① |①-②-|
⑤口口口 |③---|
③口口口 |④-⑤-|
③④口口 |⑥-⑦-|
53
口②口口 |①---|
口口口③ |②-③-|
④⑥⑥① |④-⑤-|
口口⑤① |⑥---|
54
口④口口 |①---|
口①①③ |②-③-|
口口⑤⑥ |④-⑤-|
口口⑥② |⑥---|
55
口口③口 |①-②-|
②口口⑦ |③-④-|
⑤④口口 |⑤---|
①⑤口⑥ |⑥-⑦-|
56
口①⑥口 |①-②-|
⑤口口口 |③---|
口⑦②③ |④-⑤-|
④口③口 |⑥-⑦-|
57
口④⑤口 |①---|
口②③口 |②-③-|
①⑥口口 |④-⑤-|
口①⑥口 |⑥---|
58
口口口⑤ |①---|
④口⑥口 |②-③-|
口口③② |④-⑤-|
①口⑥① |⑥---|
59
④口口口 |①-②-|
口⑤口③ |③-④-|
①②⑦⑥ |⑤---|
口⑤口口 |⑥-⑦-|
60
⑦口口② |①-②-|
①口③⑥ |③---|
④⑤口口 |④-⑤-|
口口③口 |⑥-⑦-|
61
口口口② |①---|
③①口口 |②-③-|
口⑥⑥④ |④-⑤-|
⑤①口口 |⑥---|
62
④口⑤口 |①-②-|
口③口⑤ |③-④-|
②口口⑦ |⑤---|
口①⑥口 |⑥-⑦-|
63
⑥⑧⑦② |①-②-|
口⑤①口 |③-④-|
④口口口 |⑤-⑥-|
口③口口 |⑦-⑧-|
64
口⑥⑤口 |①---|
④口⑤③ |②---|
口①①③ |③-④-|
②口口② |⑤-⑥-|
65
口口口口 |①---|
口口口口 |②---|
④①①④ |③---|
③②②③ |④---|
66
口②③口 |①-②-|
④口口① |③-④-|
口⑥⑦口 |⑤-⑥-|
⑧口口⑤ |⑦-⑧-|
67
口④②口 |①---|
④口口② |②---|
③口口① |③---|
口③①口 |④---|
68
③口口① |①---|
口④②口 |②---|
③口口① |③---|
口④②口 |④---|
69
④⑧⑤① |①-②-|
口口口口 |③-④-|
口口口口 |⑤-⑥-|
②⑥⑦③ |⑦-⑧-|
70
口口口口 |①---|
①②②① |②---|
③④④③ |③---|
口口口口 |④---|
71
口口口口 |①-②-|
⑥⑧④② |③-④-|
口口口口 |⑤-⑥-|
⑤⑦③① |⑦-⑧-|
72
口⑥④口 |①---|
口⑤③口 |②---|
②①①② |③-④-|
口口口口 |⑤-⑥-|
73
口口口口 |①---|
①④④① |②---|
②口口② |③---|
③口口③ |④---|
74
④④①① |①---|
口口口口 |②---|
②②③③ |③---|
口口口口 |④---|
75
⑦⑧④③ |①-②-|
口口口口 |③-④-|
口口口口 |⑤-⑥-|
⑤⑥②① |⑦-⑧-|
76
口口口口 |①---|
④③②① |②---|
④③②① |③---|
口口口口 |④---|
77
口口口口 |①---|
口③③口 |----|
口口口口 |②---|
①②②① |③---|
78
口④⑦① |①-②-|
②口口① |③-④-|
⑥口③口 |⑤-⑥-|
口⑧⑤⑤ |⑦-⑧-|
79
②口⑦⑦ |①-②-|
口口③① |③-④-|
⑥④口① |⑤-⑥-|
口⑧⑤⑤ |⑦-⑧-|


不确定度: 0

最終更新:2013年01月12日 22:21