Mynarco
positive MAD-crew

BASIC

Level: 6
BPM: 181
Notes: 437

1
口口口口 |----|
口口口口 |----|
口口口口 |----|
口口口口 |----|
2
口口口口 |①---|
口口口口 |----|
口口口② |②---|
口口口① |----|
3
口③口口 |①---|
口②口① |----|
口口口口 |②---|
口口口口 |③---|
4
口口口口 |①---|
口口口口 |----|
口口②口 |②---|
口口①口 |----|
5
③口口口 |①---|
②口①口 |----|
口口口口 |②---|
口口口口 |③---|
6
口口口口 |①---|
口口口口 |----|
口口口② |②---|
口口口① |----|
7
口③口口 |①---|
口②口① |----|
口口口口 |②---|
口口口口 |③---|
8
口口口口 |①---|
口口口口 |----|
②口口② |②---|
①口口① |----|
9
口口口口 |①---|
口④③口 |②---|
口②①口 |③---|
口口口口 |④---|
10
口口口口 |①---|
口口口口 |----|
①口口① |----|
口口口口 |----|
11
口口口口 |①---|
口口口口 |----|
口①①口 |----|
口口口口 |----|
12
口口口口 |①---|
①口口① |----|
口口口口 |----|
口口口口 |----|
13
口口口口 |①---|
口①①口 |----|
口②②口 |②---|
口口口口 |----|
14
口口口口 |①---|
口口口口 |----|
①口口① |----|
口口口口 |----|
15
口口口口 |①---|
口口口口 |----|
口①①口 |----|
口口口口 |----|
16
口口口口 |①---|
①口口① |----|
口口口口 |----|
口口口口 |----|
17
口口口口 |①---|
口口口口 |②---|
④口口③ |③---|
口②①口 |④---|
18
口口③口 |①---|
口口②口 |②---|
口口①口 |③---|
④④口口 |④---|
19
口③口口 |①---|
口②口口 |②---|
口①口口 |③---|
口口④④ |④---|
20
口口口口 |①---|
④口口③ |②---|
②口口① |③---|
口口口口 |④---|
21
口口口口 |①---|
口④③口 |②---|
口②①口 |③---|
口口口口 |④---|
22
口口口③ |①---|
口口口② |②---|
口口口① |③---|
④④口口 |④---|
23
③口口口 |①---|
②口口口 |②---|
①口口口 |③---|
口口④④ |④---|
24
口口④口 |①---|
口③口口 |②---|
口口②口 |③---|
口①口口 |④---|
25
口①口口 |①---|
口口②口 |②---|
口③口口 |③---|
口口④口 |④---|
26
口口口口 |①---|
②口口② |----|
①口口① |②---|
口口口口 |----|
27
口口口口 |①---|
口②②口 |----|
口口口口 |②---|
口①①口 |----|
28
口①①口 |①---|
②口口② |----|
口口口口 |②---|
口口口口 |----|
29
口④④口 |①---|
口③③口 |②---|
①②②① |③---|
口口口口 |④---|
30
口口口口 |①---|
口口口口 |----|
①口口① |②---|
口②②口 |----|
31
口口口口 |①---|
①口口① |----|
口②②口 |②---|
口口口口 |----|
32
口口口口 |①---|
口①①口 |----|
口②②口 |②---|
口口口口 |----|
33
④口口④ |①---|
③口口③ |②---|
②口口② |③---|
①口口① |④---|
34
口口口口 |①---|
口①①口 |----|
口②②口 |②---|
口口口口 |----|
35
口口口口 |①---|
②口口② |----|
①口口① |②---|
口口口口 |----|
36
口口口口 |①---|
口①①口 |----|
口②②口 |②---|
口口口口 |----|
37
口口口口 |①---|
口口口口 |②---|
④④③③ |③---|
②②①① |④---|
38
口口口口 |①---|
②①①② |----|
口口口口 |②---|
口口口口 |----|
39
口口口口 |①---|
口口口口 |----|
①②②① |②---|
口口口口 |----|
40
④④②② |①---|
③③①① |②---|
口口口口 |③---|
口口口口 |④---|
41
口口口口 |①---|
口口口口 |②---|
④①①④ |③---|
③②②③ |④---|
42
②口口② |①---|
②①①② |----|
口①①口 |②---|
口口口口 |----|
43
口口口口 |①---|
口③③口 |----|
①②②① |②---|
①口口① |③---|
44
口②①口 |①-②-|
④口口③ |③-④-|
⑥口口⑤ |⑤-⑥-|
口⑧⑦口 |⑦-⑧-|
45
口口口口 |①---|
口①①口 |----|
口①①口 |----|
口口口口 |----|
46
口口口口 |①---|
①②②① |②---|
③④④③ |③---|
口口口口 |④---|
47
口①①口 |①---|
②③③② |②---|
口④④口 |③---|
口口口口 |④---|
48
口③③口 |①---|
④口口④ |②---|
口口口口 |③---|
①②②① |④---|
49
③口口③ |①---|
口①①口 |②---|
口②②口 |③---|
④口口④ |④---|
50
口①①口 |①---|
口口③② |②---|
口口③② |③---|
④④口口 |④---|
51
口口口口 |①---|
①②口④ |②---|
①②口④ |③---|
口口③③ |④---|
52
口口口口 |①---|
③④①口 |②---|
③④①口 |③---|
②②口口 |④---|
53
口②②口 |①---|
④④③③ |②---|
口口口口 |③---|
口口①① |④---|
54
口口口④ |①---|
口口口④ |②---|
①③③① |③---|
口②②口 |④---|
55
③口口口 |①---|
③口口口 |②---|
②口口② |③---|
①④④① |④---|
56
口口口② |①---|
口口口② |②---|
④①①④ |③---|
③口口③ |④---|
57
①口口口 |①---|
①③③口 |②---|
口②②口 |③---|
④口口④ |④---|
58
口①①口 |①---|
口③口② |②---|
口③口② |③---|
口④④口 |④---|
59
口口口口 |①---|
①口②④ |②---|
①口②④ |③---|
③口口③ |④---|
60
口口口口 |①---|
③①④口 |②---|
③①④口 |③---|
口②②口 |④---|
61
口口口口 |①---|
③④④② |②---|
③④④② |③---|
①口口① |④---|
62
口口口口 |①---|
口口口口 |----|
口②②口 |----|
口①①口 |②---|
63
③口口③ |----|
②口口② |①---|
①口口① |②---|
口口口口 |③---|
64
口口口口 |①---|
③②②③ |----|
口①①口 |②---|
口口口口 |③---|
65
口口口口 |①---|
口②②口 |----|
口①①口 |----|
口口口口 |②---|
66
①①②② |①---|
口口口口 |②---|
③③④④ |③---|
口口口口 |④---|
67
口口口口 |①---|
②①①② |②---|
口口口口 |③---|
④③③④ |④---|
68
④②①③ |①---|
④②①③ |②---|
口口口口 |③---|
口口口口 |④---|
69
口口口口 |①---|
口口口口 |----|
②①①② |----|
口口口口 |②---|
70
①口口① |①---|
②口口② |----|
口口口口 |②---|
口口口口 |----|
71
口④④口 |①---|
口③③口 |②---|
口②②口 |③---|
口①①口 |④---|
72
①口口① |①---|
口口口口 |----|
口②②口 |②---|
口③③口 |③---|
73
口口口口 |①---|
①口口① |----|
口口口口 |----|
口②②口 |②---|
74
③④②① |①---|
③④②① |②---|
口口口口 |③---|
口口口口 |④---|
75
④口口④ |①---|
③口口③ |②---|
口②②口 |③---|
口①①口 |④---|
76
口②①口 |①---|
口②①口 |②---|
④口口③ |③---|
④口口③ |④---|
77
口口口口 |①---|
口③③口 |----|
口②②口 |②---|
口①①口 |③---|
78
②口口① |①---|
②口口① |②---|
④口口③ |③---|
④口口③ |④---|
79
口②②口 |①---|
口③③口 |②---|
口④④口 |③---|
口①①口 |④---|


不确定度: 0

最終更新:2013年01月12日 22:20