紅焔
PON

ADVANCED

Level: 8
BPM: 175
Notes: 572

1
口口口口 |----|
口口口口 |----|
口口口口 |----|
口口口口 |----|
2
口口口口 |①---|
口口口④ |--②-|
①③②口 |③---|
口①口口 |--④-|
3
口③口口 |①---|
①④②口 |--②-|
口口⑤口 |③-④-|
口口⑥口 |⑤-⑥-|
4
口口口口 |①---|
口③②④ |--②-|
①口口口 |③---|
口①口口 |--④-|
5
③口②③ |①---|
①口口口 |--②-|
口口⑤口 |③---|
④口口口 |④-⑤-|
6
口口口口 |①---|
①④口③ |②---|
口②口口 |③---|
口口口③ |④---|
7
③②口① |①---|
口④口口 |②---|
③②⑤① |③---|
口口口口 |④-⑤-|
8
口口口口 |①---|
口口④③ |②---|
口②口口 |③---|
口①口③ |④---|
9
①口口口 |①---|
口口口口 |----|
①③口③ |----|
②口②口 |②-③-|
10
①口①口 |①---|
④口口③ |②---|
②口口口 |③---|
口口口③ |④---|
11
③口口① |①---|
口②④口 |②---|
③⑤口① |③---|
口口口口 |④-⑤-|
12
④口口④ |①-②-|
口②口口 |③---|
口口③口 |④--⑤|
⑤口①⑤ |----|
13
口⑥①口 |①--②|
④口口④ |--③-|
口②口② |④--⑤|
口⑤③口 |--⑥-|
14
⑦口口口 |①--②|
口⑥⑤口 |--③-|
①②①④ |④-⑤-|
③口③口 |⑥-⑦-|
15
口⑥①口 |①--②|
④口口④ |--③-|
口口口口 |④--⑤|
②⑤③② |--⑥-|
16
⑦口口口 |①--②|
口⑥⑤④ |--③-|
①②①口 |④-⑤-|
③口③口 |⑥-⑦-|
17
口⑥①口 |①--②|
④口口④ |--③-|
口②口② |④--⑤|
口⑤③口 |--⑥-|
18
⑦口口口 |①--②|
口⑥⑤④ |--③-|
①②①口 |④-⑤-|
③口③口 |⑥-⑦-|
19
口⑥①口 |①--②|
④口口④ |--③-|
口②口② |④--⑤|
口⑤③口 |--⑥-|
20
⑦口口口 |①--②|
口⑥⑤④ |--③-|
①②①口 |④-⑤-|
③口③口 |⑥-⑦-|
21
口口⑥口 |①---|
口口口⑤ |②-③-|
①口④③ |④-⑤-|
口口②口 |⑥---|
22
④②口口 |①---|
①③口口 |②---|
④②口口 |③---|
口口口口 |④---|
23
口⑥①口 |①--②|
④口口④ |--③-|
口②口② |④--⑤|
口⑤③口 |--⑥-|
24
⑦口口口 |①--②|
口⑥⑤口 |--③-|
①②①④ |④-⑤-|
③口③口 |⑥-⑦-|
25
口口口口 |①---|
口口④⑤ |②-③-|
①口⑤③ |④---|
口口②口 |⑤---|
26
⑤⑥①① |①---|
③④口口 |②-③-|
口②口口 |④-⑤-|
口口口口 |⑥---|
27
口⑥①口 |①--②|
④口口④ |--③-|
口②口② |④--⑤|
口⑤③口 |--⑥-|
28
⑦口口口 |①--②|
口⑥⑤口 |--③-|
①②①④ |④-⑤-|
③口③口 |⑥-⑦-|
29
口③①① |①--②|
口口口② |--③-|
⑦④④⑦ |④-⑤-|
⑤⑥⑥⑤ |⑥-⑦-|
30
口口①口 |①--②|
④②口④ |--③-|
⑤口③⑤ |----|
口口口口 |④-⑤-|
31
口口口口 |①---|
口口⑤口 |----|
口②③口 |②-③-|
①④②① |④-⑤-|
32
口①②② |①---|
③③⑤口 |--②-|
④口口口 |③---|
口口口口 |④-⑤-|
33
②②口口 |①-②-|
口口口口 |--③-|
口③③①
口口口口

口口口口
⑥口口⑥
⑦口口⑦ |④-⑤-|
④⑤⑤④ |⑥-⑦-|
34
口口①口 |①--②|
口②口口 |--③-|
口口③口 |----|
口④④口 |④---|
35
①①①① |①---|
③②②③ |--②-|
口④口口 |③---|
口口口口 |--④-|
36
口④口③ |①--②|
口口③口 |--③-|
口口口口 |----|
②②①口 |④---|
37
口口口口 |①---|
口口口口 |--②-|
口口①① |③---|
②③口口 |----|
38
①口口口 |①--②|
口②①⑦ |--③-|
口③⑥口 |④-⑤-|
⑤口④⑤ |⑥-⑦-|
39
口口①口 |①---|
③口④口 |----|
②③口口 |②--③|
口②口口 |--④-|
40
③口②③ |①-②-|
口①④口 |③---|
口口口⑤ |----|
口口口口 |④-⑤-|
41
⑧口口⑧ |①-②-|
口⑥⑦口 |③-④-|
⑤②③口 |⑤-⑥⑦|
口④①口 |--⑧-|
42
口①①口 |①-②-|
②⑤口② |③---|
④口口口 |----|
口③③口 |④-⑤-|
43
①口②口 |①---|
口口③② |----|
口口④③ |②--③|
口口口口 |--④-|
44
口口口口 |①-②-|
口口口口 |③---|
口①口口
③口②③

口口口口
口口口口
⑤⑤⑤口 |----|
口④口口 |④-⑤-|
45
口②③④ |①---|
①口①③ |②---|
⑥口口② |③-④-|
⑤⑥口口 |⑤-⑥-|
46
口口口口 |①---|
①口口口 |----|
口口口口 |----|
口口①口 |----|
47
口口口口 |①②③-|
⑤口⑥① |----|
④⑤②口 |④--⑤|
口④口③ |--⑥-|
48
③口②③ |①-②-|
口①④口 |③---|
口口口⑤ |----|
口口口口 |④-⑤-|
49
⑧口口⑧ |①-②-|
口⑥⑦口 |③-④-|
⑤②③口 |⑤-⑥⑦|
口④①口 |--⑧-|
50
口①①口 |①--②|
②⑥口② |--③-|
⑤口口口 |④---|
④③③④ |⑤-⑥-|
51
①②③② |①---|
口口口④ |----|
口口⑤口 |②-③④|
口口口口 |--⑤-|
52
④口口口 |①-②-|
口口口口 |③---|
口①⑤口 |----|
③口②③ |④-⑤-|
53
口④④口 |①-②-|
⑤①③⑤ |③---|
口②口口 |④--⑤|
口口口口 |----|
54
④口口④ |①---|
口③③口 |②---|
④②①④ |③--④|
口①②口 |----|
55
口⑤口⑥ |①-②-|
④口③口 |--③-|
口口口口 |④---|
口①口② |⑤-⑥-|
56
④口口口 |①-②-|
口⑤口③ |③---|
口口②口 |④---|
口①口口 |⑤---|
57
口⑤口⑥ |①-②-|
④口③口 |--③-|
口口口口 |④---|
口①口② |⑤-⑥-|
58
口口口口 |①-②-|
口口⑦④ |③-④-|
①⑥③口 |⑤-⑥-|
⑤②口口 |⑦---|
59
口⑤口⑥ |①-②-|
口口口口 |--③-|
④口③口 |④---|
口①口② |⑤-⑥-|
60
口口③口 |①---|
口④①④ |②---|
口②③② |③---|
口口①口 |④---|
61
口⑤口⑥ |①-②-|
④口③口 |--③-|
口口口口 |④---|
口①口② |⑤-⑥-|
62
⑥⑥⑧⑧ |①-②-|
⑤⑤⑦⑦ |③-④-|
②②④④ |⑤-⑥-|
①①③③ |⑦-⑧-|
63
口口口口 |①-②-|
口口⑧口 |③-④-|
①口⑦⑤ |⑤-⑥-|
④②⑥③ |⑦-⑧-|
64
口口⑧口 |①-②-|
①⑦口③ |③-④-|
④②⑥口 |⑤-⑥-|
口⑤口口 |⑦-⑧-|
65
⑤①口口 |①-②-|
口⑥②口 |③-④-|
⑦③口口 |⑤-⑥-|
口⑧④口 |⑦-⑧-|
66
口口①口 |①-②-|
⑧口口② |③-④-|
⑦口③口 |⑤-⑥-|
⑥口⑤④ |⑦-⑧-|
67
③口①口 |①--②|
⑥②口④ |--③-|
口口⑤口 |-④--|
口口口口 |⑤--⑥|
68
口口口口 |--①-|
口口口口 |-②--|
口①口③ |③--④|
④口②⑤ |--⑤-|
69
口口口口 |①---|
①③口口 |②---|
④②口④ |③---|
口③口口 |④---|
70
口口口口 |①---|
口口③① |②---|
④口②④ |③---|
口口③口 |④---|
71
①③口口 |①---|
④②口④ |②---|
口③口口 |③---|
口口口口 |④---|
72
口口③① |①---|
④口②④ |②---|
口口③口 |③---|
口口口口 |④---|
73
①⑤⑤口 |①-②-|
口③④口 |③---|
口口口② |④--⑤|
口口口口 |----|
74
④口口④ |①---|
口③③口 |②---|
④②①④ |③--④|
口①②口 |----|
75
口口口口 |①---|
口口口④ |--②-|
口③②口 |③---|
口①口口 |--④-|
76
口③口口 |①---|
①④②口 |--②-|
口口⑤口 |③-④-|
口口⑥口 |⑤-⑥-|
77
口口口口 |①---|
口③②④ |--②-|
①口口口 |③---|
口①口口 |--④-|
78
口③口口 |①---|
①④②口 |--②-|
口口⑤口 |③-④-|
口口⑥口 |⑤-⑥-|
79
口口口口 |①---|
②口口② |----|
③口口③ |②---|
①口口① |③---|
80
口口口口 |①---|
口口口④ |--②-|
口③②口 |③---|
①口口① |--④-|
81
口③口口 |①---|
①④②口 |--②-|
口口⑤口 |③-④-|
口口⑥口 |⑤-⑥-|
82
口口口口 |①---|
口口口口 |----|
口口口口 |----|
①口口① |----|


不確定度: 0

最終更新:2013年02月26日 21:28