紅焔
PON

BASIC

Level: 5
BPM: 175
Notes: 324

1
口口口口 |----|
口口口口 |----|
口口口口 |----|
口口口口 |----|
2
口①口口 |①---|
口口②口 |----|
口口口口 |②---|
口口口口 |----|
3
口口口口 |①---|
口口口口 |----|
口③口① |②---|
口口②口 |③---|
4
口口口口 |①---|
①口口② |----|
口口口口 |②---|
口口口口 |----|
5
口口口口 |①---|
口口③口 |----|
口②②口 |②---|
口①①口 |③---|
6
②口口口 |①---|
①口口口 |----|
口口口口 |②---|
口口口口 |----|
7
口④口③ |①---|
口口口② |②---|
口口口① |③---|
口口口口 |④---|
8
口口口口 |①---|
③口①③ |----|
口②②口 |②---|
口口口口 |③---|
9
口口口口 |①---|
口②口口 |----|
口口口口 |----|
①口口① |②---|
10
口口口② |①---|
口口口① |----|
口口口口 |②---|
口口口口 |----|
11
③口④口 |①---|
②口口口 |②---|
①口口口 |③---|
口口口口 |④---|
12
③口口③ |①---|
口①口口 |----|
口②②口 |②--③|
口口口口 |----|
13
口口口口 |①---|
②①①② |----|
口口口口 |②---|
口口口口 |----|
14
口口口口 |①---|
口口口口 |----|
②①①③ |②---|
口口口口 |③---|
15
口口口口 |①---|
②①①② |----|
口口口口 |②---|
口口口口 |----|
16
口口口口 |①---|
口口口口 |----|
②①①③ |②---|
口口口口 |③---|
17
口口口口 |①---|
②①①② |----|
口口口口 |②---|
口口口口 |----|
18
口口口口 |①---|
口口口口 |----|
②①①③ |②---|
口口口口 |③---|
19
口口口口 |①---|
②①①② |----|
口口口口 |②---|
口口口口 |----|
20
口口口口 |①---|
口口口口 |----|
②①①③ |②---|
口口口口 |③---|
21
口口③② |①---|
口口口口 |②---|
口④口口 |③---|
口①①口 |④---|
22
④口口④ |①---|
③口口③ |②---|
②口口② |③---|
①口口① |④---|
23
口口口口 |①---|
②①①② |----|
口口口口 |②---|
口口口口 |----|
24
口口口口 |①---|
口口口口 |----|
②①①③ |②---|
口口口口 |③---|
25
②③口口 |①---|
口口口口 |②---|
口口④口 |③---|
口①①口 |④---|
26
口口口口 |①---|
口口口口 |②---|
③口口③ |③---|
①②②① |----|
27
口口口口 |①---|
②①①② |----|
口口口口 |②---|
口口口口 |----|
28
口口口口 |①---|
口口口口 |----|
②①①③ |②---|
口口口口 |③---|
29
口②口口 |①---|
口口③口 |----|
口口口口 |②---|
口①①口 |③---|
30
口口口口 |①---|
口口口口 |----|
口①口口 |②---|
②口口② |----|
31
口口口口 |①---|
口③口口 |----|
口口②口 |②---|
口①①口 |③---|
32
②口①② |①---|
口口口口 |----|
口口口口 |②---|
口口口口 |----|
33
口口②口 |①---|
口③口口 |----|
口口口口 |②---|
口①①口 |③---|
34
口口口口 |①---|
口口口口 |----|
口口①口 |②---|
②口口② |----|
35
口口口口 |①---|
①①①① |----|
②②②② |②---|
口口口口 |----|
36
③③③③ |①--②|
口口口口 |--③-|
口口④口 |----|
口①②口 |④---|
37
口口口口 |①---|
口口口口 |----|
口口口口 |②---|
②①口② |----|
38
③口口③ |①---|
②口口② |----|
口①①口 |②-③-|
口口口口 |----|
39
口口口口 |①---|
②口口口 |----|
口口口口 |②---|
口①①口 |----|
40
②②②② |①---|
口口口① |②---|
口口口口 |----|
③口口口 |③---|
41
口口口口 |①---|
②口口② |----|
口①口口 |②---|
口口口口 |----|
42
口口口口 |①---|
口口口口 |②---|
口口①口 |----|
口口口② |----|
43
口①①口 |①---|
口口口口 |----|
②口口口 |②---|
口口口口 |----|
44
口口口口 |①---|
口口口口 |②---|
口口口① |----|
②②②② |----|
45
口口口口 |①---|
②口①② |②---|
④③口④ |③---|
口口口口 |④---|
46
口口口口 |①---|
口口口口 |----|
口口口口 |----|
①口口① |----|
47
口口口口 |①---|
②③口口 |----|
口口口口 |②---|
口①①口 |③---|
48
②②②② |①---|
口口口① |②---|
口口口口 |----|
③口口口 |③---|
49
口口口口 |①---|
③口②③ |②---|
口①口口 |③---|
口口口口 |----|
50
口口口口 |①---|
口口口口 |②---|
口口①口 |③---|
③口口② |----|
51
口①①口 |①---|
口口口口 |----|
口口③② |②---|
口口口口 |③---|
52
口口口口 |①---|
口口口口 |②---|
①口口口 |----|
②②②② |----|
53
口口口口 |①---|
①②②① |----|
口口口口 |②---|
口口口口 |----|
54
③③③③ |①---|
②口口② |----|
①口口① |②--③|
口口口口 |----|
55
口口口口 |①---|
口口口口 |----|
口②口口 |②---|
①口口口 |----|
56
口口④口 |①---|
口口③口 |②---|
口口②口 |③---|
口口①口 |④---|
57
口口口口 |①---|
口②口口 |----|
①口口口 |②---|
口口口口 |----|
58
口口口① |①---|
口口口② |②---|
口口口③ |③---|
口口口④ |④---|
59
口②口口 |①---|
①口口口 |----|
口口口口 |②---|
口口口口 |----|
60
口口口④ |①---|
口口③口 |②---|
口口口② |③---|
口口①口 |④---|
61
①口口口 |①---|
口②口口 |----|
口口口口 |②---|
口口口口 |----|
62
口口①口 |①---|
口口口② |②---|
口口③口 |③---|
口口口④ |④---|
63
口口口口 |①---|
口口①口 |----|
口②口口 |②---|
口口口口 |----|
64
口口口口 |①---|
口②口口 |----|
口口①口 |②---|
口口口口 |----|
65
口②①口 |①---|
③口口口 |②---|
④口口口 |③---|
口口口口 |④---|
66
口口口口 |①---|
口口口④ |②---|
口口口③ |③---|
口①②口 |④---|
67
②①①② |①---|
口口口口 |--②-|
口③③口 |----|
口口口口 |③---|
68
口口口口 |--①-|
口②②口 |----|
①口口① |②---|
口口口口 |----|
69
口口口口 |①---|
口口口口 |②---|
口口口口 |③---|
①②③④ |④---|
70
①口口口 |①---|
②口口口 |②---|
③口口口 |③---|
④口口口 |④---|
71
④③②① |①---|
口口口口 |②---|
口口口口 |③---|
口口口口 |④---|
72
口口口④ |①---|
口口口③ |②---|
口口口② |③---|
口口口① |④---|
73
口口口口 |①---|
口②②口 |----|
口口口口 |②---|
①口口① |----|
74
③③③③ |①---|
②口口② |----|
①口口① |②--③|
口口口口 |----|
75
口口口口 |①---|
②①①② |----|
口口口口 |②---|
口口口口 |----|
76
口口口口 |①---|
口口口口 |----|
②①①③ |②---|
口口口口 |③---|
77
口口口口 |①---|
②①①② |----|
口口口口 |②---|
口口口口 |----|
78
口口口口 |①---|
口口口口 |----|
②①①③ |②---|
口口口口 |③---|
79
口口口口 |①---|
口口口口 |----|
口口口口 |----|
口①①口 |----|
80
口①①口 |①---|
口②②口 |----|
口口口口 |②---|
口口口口 |----|
81
口口口口 |①---|
口口口口 |----|
口①①口 |②---|
口②③口 |③---|
82
口口口口 |①---|
口口口口 |----|
①口口① |----|
口口口口 |----|


不確定度: 0

最終更新:2013年02月26日 21:29