Magnetic
Sota Fujimori

BASIC

Level: 5
BPM: 160
Notes: 368

1
口口口口 |----|
口口口口 |----|
口口口口 |----|
口口口口 |----|
2
①⑤⑤口 |①---|
口口口④ |②-③-|
口口口③ |④---|
口口口② |⑤---|
3
口口口口 |①---|
口口口口 |②---|
口口口口 |③---|
①②③④ |④---|
4
口口口口 |①---|
口口口口 |②---|
①②③④ |③---|
口口口口 |④---|
5
口口口口 |①---|
①②③④ |②---|
口口口口 |③---|
口口口口 |④---|
6
①②③④ |①---|
口口口口 |②---|
口口口口 |③---|
口口口口 |④---|
7
口口口口 |①-②-|
口口口② |③---|
口口口口 |④---|
①③④⑤ |⑤---|
8
口口口口 |①-②-|
口口②② |③---|
①③④⑤ |④---|
口口口口 |⑤---|
9
口口口口 |①-②-|
口②②② |③---|
口口口口 |④---|
①③④⑤ |⑤---|
10
口口口口 |①---|
①①①① |----|
③口口② |②-③-④-|
⑤口口④ |⑤---|
11
①②③④ |①---|
口口口口 |②---|
口口口口 |③---|
口口口口 |④---|
12
口口口口 |①---|
④口口④ |②---|
①②③口 |③---|
口口口口 |④---|
13
口口口口 |①---|
口口口口 |②---|
口口口口 |③---|
①②③④ |④---|
14
①②③口 |①---|
口口口口 |②---|
④口口④ |③--④|
口口口口 |----|
15
口口口口 |①---|
①②③④ |②---|
口口口口 |③---|
口口口口 |④---|
16
口口口口 |①---|
口口口口 |②---|
①②口口
口口口口

口口口口
口口口口
④口③④ |③---|
口口口口 |④---|
17
口口口口 |①---|
口口口口 |②---|
口口口口 |③---|
①②③④ |④---|
18
口口口口 |-①--|
②口口② |--②-|
口①①口 |---③|
③口口③ |----|
19
④③②① |①---|
口口口口 |②---|
口口口口 |③---|
口口口口 |④---|
20
口口口口 |①---|
④口口④ |②---|
口③②① |③---|
口口口口 |④---|
21
口口口口 |①---|
口口口口 |②---|
口口口口 |③---|
④③②① |④---|
22
口③②① |①---|
口口口口 |②---|
④口口④ |③---|
口口口口 |④---|
23
口口口口 |①---|
④③②① |②---|
口口口口 |③---|
口口口口 |④---|
24
口口口口 |①---|
口口口口 |②---|
口口口口 |③---|
④③②① |④---|
25
④③②① |①---|
口口口口 |②---|
口口口口 |③---|
口口口口 |④---|
26
④③③④ |①---|
④②②④ |②---|
口①①口 |③---|
口口口口 |-④--|
27
口口口口 |①---|
口口口口 |②---|
④口③口 |③---|
②口口① |④---|
28
④口③口 |①---|
②④口① |②---|
口口口口 |③---|
口口口口 |④---|
29
口口口口 |①---|
口口口口 |②---|
④口口③ |③---|
②口①口 |④---|
30
④口口③ |①---|
②④①口 |②---|
口口口口 |③---|
口口口口 |④---|
31
口口口口 |①---|
口口口口 |②---|
口③口④ |③---|
①口口② |④---|
32
口③口④ |①---|
①口④② |②---|
口口口口 |③---|
口口口口 |④---|
33
口口口口 |-①--|
口①②口 |----|
③②①③ |-②--|
口口口口 |--③-|
34
②口口② |----|
口①①口 |---①|
口口口口 |---②|
口口口口 |----|
35
口口口口 |①---|
口口口口 |②---|
口③④口 |③---|
口①②口 |④---|
36
口③④口 |①---|
口①②④ |②---|
口口口口 |③---|
口口口口 |④---|
37
口口口口 |①---|
口口口口 |②---|
③口口④ |③---|
①口口② |④---|
38
③口口④ |①---|
①口④② |②---|
口口口口 |③---|
口口口口 |④---|
39
口口口口 |①---|
口口口口 |②---|
口③④口 |③---|
口①②口 |④---|
40
口③④口 |①---|
口①②④ |②---|
口口口口 |③---|
口口口口 |④---|
41
口④④口 |①---|
口③口口 |②---|
口口②口 |③-④-|
口①口口 |----|
42
口口口① |①---|
口口口口 |----|
口口口口 |----|
口口口口 |----|
43
口口口口 |①---|
口③口口 |--②-|
口口②口 |③---|
①口口口 |----|
44
口口①口 |--①-|
口口②口 |--②-|
口口③口 |--③-|
口口口口 |----|
45
口口口口 |①---|
口口③口 |--②-|
口②口口 |③---|
口口口① |----|
46
③口口口 |--①-|
口口口② |--②-|
口口口口 |--③-|
①口口口 |----|
47
③口口③ |①---|
口①②口 |②---|
口②①口 |③---|
口口口口 |----|
48
口口口口 |--①-|
口①口口 |--②-|
口口②口 |--③-|
口③口口 |----|
49
口口口口 |--①-|
口口口③ |--②-|
口②口口 |③---|
口口①口 |----|
50
口口口口 |--①-|
口①②口 |--②-|
口②①口 |--③-|
③口口③ |----|
51
口口口口 |----|
口口口口 |----|
口口口口 |----|
口口口口 |----|
52
口口口口 |----|
口口口口 |----|
口口口口 |----|
口口口口 |----|
53
③口口③ |①---|
口②②口 |②---|
①口口① |③---|
口口口口 |----|
54
口口口口 |①---|
⑤口口⑤ |②---|
①④④① |③-④-|
②③③② |⑤---|
55
口口口口 |①---|
②口口② |----|
口③③口 |②---|
①口口① |③---|
56
口①①口 |①---|
口口口口 |----|
口②②口 |②---|
②口口② |----|
57
②口口② |①---|
①口口① |----|
口口口口 |②---|
口口口口 |----|
58
⑤口口⑤ |①---|
①④④① |②---|
口②②口 |③-④-|
③口口③ |⑤---|
59
口①①口 |①---|
②口口③ |----|
口口口口 |②---|
口口口口 |③---|
60
口口口口 |①---|
口口口口 |----|
①口口口 |②---|
②口口② |----|
61
③口口③ |①---|
①口口① |②---|
口②②口 |③---|
口口口口 |----|
62
口口口口 |①---|
⑤①①⑤ |②---|
④②②④ |③-④-|
口③③口 |⑤---|
63
口口口口 |①---|
②①①② |----|
口③③口 |②---|
口口口口 |③---|
64
口口口口 |①---|
口②②口 |----|
口②②口 |②---|
①口口① |----|
65
③口口③ |①---|
①口口① |②---|
口②②口 |③---|
口口口口 |----|
66
⑤①①⑤ |①---|
②⑤⑤② |②---|
口④④口 |③-④-|
口③③口 |⑤---|
67
口口口口 |①---|
①口口① |----|
②口口③ |②---|
口口口口 |③---|
68
口口口口 |①---|
口口口口 |----|
口口口口 |②---|
①②②口 |----|
69
口口口口 |----|
口口口口 |----|
口口口口 |----|
口口口口 |----|
70
口口口口 |①---|
口口口口 |②---|
口口口口 |③---|
④③②① |④---|
71
口口口口 |①---|
口口口口 |②---|
④口②口 |③---|
口③口① |④---|
72
口口口口 |①---|
④口②口 |②---|
口口口口 |③---|
口③口① |④---|
73
④口②口 |①---|
口口口口 |②---|
口口口口 |③---|
口③口① |④---|
74
口口口口 |①-②-|
②口口口 |③---|
口口口口 |④---|
⑤④③① |⑤---|
75
口口口口 |①-②-|
②②口口 |③---|
⑤④③① |④---|
口口口口 |⑤---|
76
口口口口 |①-②-|
②②②口 |③---|
口口口口 |④---|
⑤④③① |⑤---|
77
口口口口 |①---|
口①①口 |----|
口口口口
口口口口

口口③口
口③口③
口口③口 |②---|
②口口口 |③---|


不確定度: 0

最終更新:2013年03月29日 20:51