Magnetic
Sota Fujimori

ADVANCED

Level: 8
BPM: 160
Notes: 578

1
口口口口 |----|
口口口口 |----|
口口口口 |----|
口口口口 |----|
2
①口口⑥ |①---|
口口⑦口 |②③④⑤|
⑤⑧口④ |⑥-⑦-|
③口口② |⑧---|
3
④⑤口③ |①---|
②①口口 |②--③|
口口口口 |④---|
口口口口 |⑤---|
4
④⑤口口 |①---|
②①口③ |②--③|
口口口口 |④---|
口口口口 |⑤---|
5
④⑤口口 |①-②-|
③①口口 |③---|
口口②口 |④---|
口口口口 |⑤---|
6
④⑥口口 |①--②|
③①口口 |③---|
口口口② |④-⑤-|
口口⑤口 |⑥---|
7
⑤⑦口⑧ |①-②-|
③①口⑥ |③-④-|
口口口④ |⑤-⑥-|
口口口② |⑦-⑧-|
8
⑤⑦⑧口 |①-②-|
③①⑥口 |③-④-|
口口④口 |⑤-⑥-|
口口②口 |⑦-⑧-|
9
⑤⑦⑧口 |①-②-|
③①口⑥ |③-④-|
口口④口 |⑤-⑥-|
口口口② |⑦-⑧-|
10
口口口口 |①---|
②①①③ |----|
④②③⑤ |②-③-④-|
口④⑤口 |⑤---|
11
⑥③口① |①-②-|
④⑤②口 |③-④-|
⑧⑦口口 |⑤-⑥-|
口口口口 |⑦-⑧-|
12
⑥⑥⑥⑥ |①-②-|
②④口口 |③-④-|
口⑤口口 |⑤---|
③①口口 |⑥---|
13
口口⑦口 |①-②-|
口口口⑥ |③-④-|
①口③⑧ |⑤-⑥-|
口②⑤④ |⑦-⑧-|
14
口口口② |①-②-|
口口①⑤ |③-④-|
⑥口③⑥ |⑤--⑥|
口⑥⑥④ |----|
15
口④口口 |①-②-|
口口③口 |③-④-|
口②口口
①口口口

口口口口
口⑥口口
口⑧⑤口 |⑤-⑥-|
口口⑦口 |⑦-⑧-|
16
⑥③⑤⑥ |①-②-|
⑥口②⑥ |③-④-|
口口④口 |⑤---|
口①口口 |⑥---|
17
口①⑧口 |①-②-|
口⑥②口 |③-④-|
口③⑦口 |⑤-⑥-|
口⑤④口 |⑦-⑧-|
18
①③口① |-①--|
③③③口 |--②-|
②③口② |---③|
口口口口 |----|
19
口口③口 |①-②-|
口口口③ |③-④-|
④口口口
①②口口

口口口口
⑤⑥口口
口口⑦口 |⑤-⑥-|
口⑧口⑦ |⑦-⑧-|
20
口③口口 |①-②-|
③口②⑤ |③-④-|
口⑦⑥① |⑤-⑥-|
⑦口④口 |⑦---|
21
口口③口 |①-②-|
口③口口 |③-④-|
④口口②
口口口①

⑤口口口
⑥口口口
口口⑦口 |⑤-⑥-|
口⑦口⑧ |⑦-⑧-|
22
④③口② |①-②-|
口口③① |③-④-|
⑤⑦口口 |⑤-⑥-|
⑥口⑦口 |⑦---|
23
③②⑤口 |①-②-|
④③口口 |③-④-|
⑦⑥①口 |⑤-⑥-|
⑧⑦口口 |⑦-⑧-|
24
①口③④ |①-②-|
口②口③ |③-④-|
⑤口⑦口 |⑤-⑥-|
口⑥口⑦ |⑦---|
25
④③口⑦ |①-②-|
③口⑦⑧ |③-④-|
口②口⑥ |⑤-⑥-|
①口⑤口 |⑦-⑧-|
26
口⑦①⑦ |①-②-|
⑥②⑦口 |③---|
口口③⑤ |④⑤-⑥|
④③口口 |-⑦--|
27
口口⑦口 |-①-②|
口①口⑦ |③-④-|
⑥③②口 |--⑤-|
④口口⑤ |⑥-⑦-|
28
②①口④ |--①-|
③⑤⑤口 |②-③-|
⑥口口⑥ |④--⑤|
口口口口 |--⑥-|
29
口口口③ |-①--|
口口口口 |②-③-|
口②①口
口口口口

口④⑤口
④⑤口口
口口⑥口 |④--⑤|
口口口⑥ |--⑥-|
30
口④口④ |--①-|
⑤口⑤口 |②-③-|
③⑥口⑥ |④---|
②①口口 |⑤--⑥|
31
口口②口 |-①-②|
⑥③⑥① |③---|
⑤⑥⑤⑥ |④--⑤|
④口④口 |--⑥-|
32
口④①② |--①-|
⑤口⑤③ |②-③-|
口⑥口⑥ |④-⑤-|
口⑥口⑥ |--⑥-|
33
①口口④ |-①-②|
口②⑤口 |③---|
口口③口 |-④-⑤|
⑥口口⑥ |--⑥-|
34
⑤口口⑤ |-①-②|
②⑤⑤② |---③|
①④④① |-④-⑤|
口③③口 |----|
35
口④②口 |①---|
④口口② |②---|
③口口③ |③---|
①口口① |④---|
36
④口口② |①---|
口④②口 |②---|
口①①口 |③---|
口③③口 |④---|
37
口口口② |①---|
①③②口 |②---|
①③④口 |③---|
口口口④ |④---|
38
①③②口 |①---|
口口口② |②---|
口口口④ |③---|
①③④口 |④---|
39
口②③① |①---|
②口口口 |②---|
④口口口 |③---|
口④③① |④---|
40
②口口口 |①---|
口②③① |②---|
口④③① |③---|
④口口口 |④---|
41
④①①④ |①---|
口③③口 |②---|
②口口② |③-④-|
口②②口 |----|
42
口口口口 |①---|
②口口口 |----|
口②口口 |②---|
口①①口 |----|
43
口③①口 |①---|
③口口① |--②-|
口口口② |③---|
口口②口 |----|
44
③口口口 |--①-|
口口②口 |--②-|
①②口口 |--③-|
口①口③ |----|
45
口口口③ |①---|
①口②口 |--②-|
口②口① |③---|
③口口口 |----|
46
口①③口 |--①-|
②口口口 |--②-|
①口口③ |--③-|
口②口口 |----|
47
口口口① |①-②-|
口口③② |③-④-|
口⑤④口 |⑤---|
口口口口 |----|
48
④口口口 |--①-|
口口口③ |②-③-|
②口口口 |④---|
口口口① |----|
49
口口口口 |--①-|
口④口⑤ |②-③-|
②③口口 |④---|
①口口口 |--⑤-|
50
口口口口 |--①-|
口口口口 |--②-|
④口口① |③-④-|
口③②口 |----|
51
①口口② |①---|
口口口口 |--②-|
口口口口 |--③-|
④口口③ |④---|
52
①口口口 |①---|
口⑤④⑥ |②③④⑤|
口③②⑦ |⑥-⑦-|
口口⑧口 |⑧---|
53
口⑤④口 |①---|
口口③④ |②-③-|
①②口口 |④---|
口①口口 |--⑤-|
54
口口⑦口 |①-②-|
①⑦口⑥ |③-④-|
②口口⑤ |⑤-⑥-|
口③④口 |⑦---|
55
口①口② |①---|
口口①③ |--②-|
口口口④ |③-④-|
口⑥⑤口 |⑤-⑥-|
56
②口口口 |①---|
口③口口 |--②③|
①口④口 |④---|
口口口口 |----|
57
口④口口 |①---|
④③口口 |②-③-|
口口②① |④---|
口口①口 |----|
58
口⑦①口 |①-②-|
⑦口口② |③-④-|
⑥口口③ |⑤-⑥-|
口⑤④口 |⑦---|
59
①口口口 |①---|
口①口⑥ |--②-|
②口口⑤ |③-④-|
口③④口 |⑤-⑥-|
60
②口①口 |①---|
口③口口 |--②③|
口口④口 |④---|
口口口口 |----|
61
口口口口 |①---|
①口口① |②-③-|
①③③①
口②②口

④口⑤④
口④④⑥
口口口口 |④---|
口口口口 |⑤-⑥-|
62
⑦口口⑦ |①-②-|
口⑥⑥口 |③-④-|
④⑤⑤① |⑤-⑥-|
口③②口 |⑦---|
63
口①①口 |①---|
②口口⑦ |②-③-|
③口口⑥ |④-⑤-|
口④⑤口 |⑥-⑦-|
64
①口口① |①---|
②①①口 |--②③|
口③口口 |④---|
口口④口 |----|
65
①④④① |①---|
④①①④ |②-③-|
口③③口 |④---|
口②②口 |----|
66
⑦⑦⑦⑦ |①-②-|
⑥①④⑥ |③-④-|
①⑤⑤④ |⑤-⑥-|
口②③口 |⑦---|
67
口口口口 |①---|
⑦①②口 |②-③-|
⑥口口③ |④-⑤-|
口⑤④口 |⑥-⑦-|
68
口①口② |①---|
口口③口 |--②③|
口④口口 |④---|
口口口口 |----|
69
口口口口 |----|
口口口口 |----|
口口口口 |----|
口口口口 |----|
70
口口口口 |①---|
口口口口 |②--③|
①②口口 |④---|
⑤④口③ |⑤---|
71
④⑤口③ |①---|
②口口口 |②--③|
①口口口 |④---|
口口口口 |⑤---|
72
④⑤口③ |①---|
②①口口 |②--③|
口口口口 |④---|
口口口口 |⑤---|
73
口口①② |①---|
口口④③ |②---|
⑤口口口 |③---|
⑥口口口 |④-⑤-⑥-|
74
口口①② |①---|
③口口④ |②--③|
口口口⑤ |④---|
口口口口 |⑤---|
75
⑥⑤口口 |①---|
⑦④口口 |②---|
⑧口③⑥ |③-④-⑤-|
⑨口②① |⑥⑦⑧⑨|
76
口口口口 |①---|
口口口③ |②--③|
口口口口 |④---|
⑤④②① |⑤---|
77
③⑤④② |①-②-|
⑤口⑥④ |-③--|
口⑦口⑥ |④-⑤-⑥-|
⑦口⑦① |⑦---|


不確定度: 0

最終更新:2013年03月29日 20:51