True Blue
dj TAKA feat.AiMEE

ADVANED

Level: 9
BPM: 164
Notes: 702

1
口口口口 |----|
口口口口 |----|
口口口口 |----|
口口口口 |----|
2
口②②口 |①---|
口口口口 |----|
口口口口 |②---|
①口口口 |----|
3
口④④口 |①---|
①口口① |②-③-|
⑤②③⑤ |--④-|
口②③口 |--⑤-|
4
①口口② |----|
口①②口 |----|
口口口口 |----|
口口口口 |①-②-|
5
口①①口 |----|
口口口口 |----|
②口口② |①---|
口口口口 |②---|
6
口口口口 |①---|
④口口口 |----|
②④口③ |--②-|
①②③① |③-④-|
7
口口口口 |①---|
口②②① |②---|
口口①口
口口口口

③口口③
口口口口
口④④口 |③---|
口口口口 |④---|
8
口口口口 |①---|
①③④① |--②-|
口③④口 |----|
②口口② |③-④-|
9
口口口口 |----|
③口口③ |①---|
②口口② |②---|
口①①口 |③---|
10
①口口① |①-②-|
⑦口②口 |③-④-|
口③口⑥ |--⑤-|
⑤口④口 |⑥-⑦-|
11
口口口口 |----|
口口口口 |----|
口口口口 |----|
口口口口 |----|
12
⑥⑥口① |①-②-|
②④口⑤ |③-④-|
口口口③ |--⑤-|
口口口口 |--⑥-|
13
口口①① |--①-|
口口口口 |②---|
②②③③ |③---|
口④④口 |④---|
14
①口⑤④ |①-②-|
口③②口 |③-④-|
⑥口口⑦ |--⑤-|
⑥口口⑦ |⑥-⑦-|
15
口口口口 |----|
口②③口 |----|
口②③口 |①---|
口①①口 |②-③-|
16
口③②⑨ |①-②③|
口口⑩④ |-④-⑤|
⑥口口⑤ |⑥-⑦⑧|
①⑧⑦① |-⑨-⑩|
17
口口⑤口 |①-②③|
口①口④ |-④-⑤|
口③②口
口口口口

口⑥口⑦
口⑧口口
⑨口口⑨ |⑥-⑦-|
口口口口 |⑧-⑨-|
18
口⑥⑤口 |①-②③|
口⑧⑦④ |-④-⑤|
口③②⑨ |⑥-⑦⑧|
①口⑩① |-⑨-⑩|
19
口⑥⑤⑦ |①-②③|
口⑧口④ |-④-⑤|
⑨③②⑨ |⑥-⑦-|
口①口口 |⑧-⑨-|
20
口⑥⑤⑦ |①-②③|
口⑧口④ |-④-⑤|
⑨③②⑨ |⑥-⑦-|
①口口① |⑧-⑨-|
21
口⑥⑤⑦ |①-②③|
口⑧口④ |-④-⑤|
⑨③②⑨ |⑥-⑦-|
①口口① |⑧-⑨-|
22
②⑥口口 |①-②-|
口口③⑦ |③-④-|
⑧④口口 |⑤-⑥-|
①⑤⑤① |⑦-⑧-|
23
⑥口口⑦ |①-②-|
口④⑤口 |③-④-|
口②③口 |⑤-⑥-|
①⑧⑧② |⑦-⑧-|
24
口口口口 |----|
①口⑦⑥ |----|
④⑤③② |①-②③|
口口口口 |④⑤⑥⑦|
25
①②口口 |①②③④|
口⑤口口 |⑤--⑥|
口口口⑥
口口④③

⑬⑫⑪⑩
口口口口
口口⑦口 |⑦⑧⑨-|
⑧⑨口口 |⑩⑪⑫⑬|
26
口口口口 |①②③④|
③④口⑤ |⑤--⑥|
口口口⑥
口口②①

口口口口
口口口口
⑧⑨⑦口 |⑦⑧⑨-|
⑬⑫⑪⑩ |⑩⑪⑫⑬|
27
④③②① |①②③④|
⑤⑥⑦⑧ |⑤⑥⑦⑧|
⑨⑩⑪⑫ |⑨⑩⑪⑫|
⑯⑮⑭⑬ |⑬⑭⑮⑯|
28
④③②① |①②③④|
⑧⑦⑥⑤ |⑤⑥⑦⑧|
⑫⑪⑩⑨ |⑨⑩⑪⑫|
⑬⑭⑮⑯ |⑬⑭⑮⑯|
29
①②⑦⑥ |①②③④|
⑤口④③ |⑤-⑥⑦|
⑧⑨口⑩ |⑧⑨⑩-|
⑪⑫⑬⑭ |⑪⑫⑬⑭|
30
⑧⑦⑥⑤ |①②③④|
④③②① |⑤⑥⑦⑧|
⑫⑪⑩⑨ |⑨⑩⑪⑫|
⑬⑭⑮⑯ |⑬⑭⑮⑯|
31
⑤⑥⑦⑧ |①②③④|
①②③④ |⑤⑥⑦⑧|
⑨⑩⑪⑫ |⑨⑩⑪⑫|
⑯⑮⑭⑬ |⑬⑭⑮⑯|
32
⑤⑥⑦⑧ |①②③④|
①②③④ |⑤⑥⑦⑧|
⑨⑩⑪⑫ |⑨⑩⑪⑫|
⑬⑭⑮⑯ |⑬⑭⑮⑯|
33
①口②口 |①---|
①②口口 |----|
口口口口 |②---|
口口口口 |----|
34
口①口口 |①---|
口口①口 |②-③-|
②口口③ |--④-|
口④口口 |----|
35
口口口③ |①---|
②口口口 |②-③-|
④口①口 |--④-|
口口⑤① |--⑤-|
36
口口口口 |----|
⑤⑤口⑥ |①-②-|
③③口④ |③-④-|
①①口② |⑤-⑥-|
37
口①①口 |①---|
口口口口 |②---|
②口口口 |③---|
④口口③ |④---|
38
①口口① |①---|
口口②口 |--②-|
口②口口 |----|
口③③口 |③---|
39
口口口口 |①---|
口口口口 |②-③-|
①②③① |----|
口口口口 |----|
40
①②③④ |①②③④|
⑧⑦⑥⑤ |⑤⑥⑦⑧|
⑨⑩⑪⑫ |⑨⑩⑪⑫|
⑯⑮⑭⑬ |⑬⑭⑮⑯|
41
口口①① |①---|
口口口② |----|
口口口口 |②---|
口口口口 |----|
42
口口口口 |①---|
①口④口 |②-③-|
①口口② |--④-|
口③口口 |----|
43
①⑤⑤① |①---|
②口口③ |②-③-|
②口口③ |--④-|
口④④口 |--⑤-|
44
⑤⑤口⑥ |----|
③③口④ |①-②-|
①①口② |③-④-|
口口口口 |⑤-⑥-|
45
口口口口 |----|
口③②口 |①---|
口②③口 |②---|
口①①口 |③---|
46
①口口① |①---|
口口口口 |--②-|
②口口② |----|
口③③口 |③---|
47
口③②口 |①---|
口①①口 |②-③-|
口②③口 |----|
口口口口 |----|
48
①口口② |----|
①③④② |----|
口③④口 |①-②-|
口口口口 |③-④-|
49
⑤口口口 |①---|
口⑤口口 |②-③-|
②④④③ |--④-|
②①①③ |--⑤-|
50
口口口① |①---|
口口①口 |--②-|
口②②口 |----|
③口口③ |③---|
51
①口口① |①---|
口口口口 |--②-|
口②②口 |----|
口口口口 |----|
52
口口口口 |----|
口口口口 |----|
口口口口 |----|
口口口口 |----|
53
口口口口 |①---|
①口口口 |②-③-|
口⑤②② |----|
③③④口 |④-⑤-|
54
口口①口 |①---|
②口口口 |--②-|
口口口③ |----|
口口口口 |③---|
55
⑤口口⑤ |①---|
口③②口 |②-③-|
口③②口 |--④-|
①④④口 |--⑤-|
56
口口口口 |----|
③口口③ |①---|
②口口② |②---|
①口口① |③---|
57
⑤①①⑤ |①---|
口②③口 |②-③-|
口②③口 |--④-|
④口口④ |--⑤-|
58
口口口口 |----|
口口口口 |----|
口口口口 |----|
口口口口 |----|
59
②口口① |①-②-|
④②①③ |③-④-|
⑥④③⑤ |--⑤-|
⑥口口⑤ |--⑥-|
60
口口口口 |----|
②口口② |①---|
口③③口 |②---|
口①①口 |③---|
61
①口口① |①---|
口①①口 |②-③-|
②口口③ |----|
口②③口 |----|
62
②①①③ |----|
④②③口 |--①-|
口④口口 |--②-|
口口口口 |③-④-|
63
口口口口 |①---|
口口口① |--②-|
②口①③ |③---|
②口口③ |----|
64
口口口口 |①---|
口②②口 |----|
口口口口 |②---|
口①①口 |----|
65
①口口① |①---|
口口口口 |----|
口①①口 |----|
口口口口 |----|
66
口口口口 |----|
口口口口 |----|
口口口口 |----|
口口口口 |----|
67
口口口口 |①②③④|
⑥⑦口口 |⑤-⑥⑦|
①②③④
⑤口口口

⑪⑩⑨⑧
口口口⑫
⑬口口口 |⑧⑨⑩⑪|
口口口口 |⑫-⑬-|
68
⑨⑩⑪⑫ |①-②-|
⑤⑥⑦⑧ |③-④-|
口④口③ |⑤⑥⑦⑧|
口②①口 |⑨⑩⑪⑫|
69
⑬⑫⑪⑩ |①---|
⑨⑧⑦⑥ |②③④⑤|
⑤④③② |⑥⑦⑧⑨|
①口口口 |⑩⑪⑫⑬|
70
口⑧⑨口 |①---|
口口口口 |②③④⑤|
⑥口⑦① |⑥-⑦-|
②③④⑤ |⑧-⑨-|
71
⑬⑭⑮⑯ |①②③④|
④③②① |⑤⑥⑦⑧|
⑫⑪⑩⑨ |⑨⑩⑪⑫|
⑧⑦⑥⑤ |⑬⑭⑮⑯|
72
⑯⑮⑭⑬ |①②③④|
①②③④ |⑤⑥⑦⑧|
⑫⑪⑩⑨ |⑨⑩⑪⑫|
⑤⑥⑦⑧ |⑬⑭⑮⑯|
73
口口口口 |①-②③|
口口口① |④-⑤⑥|
口口口④
②③⑥⑤

⑪⑫⑩⑨
⑦⑧⑭⑬
口口口口 |⑦⑧⑨⑩|
口口口口 |⑪⑫⑬⑭|
74
⑦⑪⑥⑤ |①-②③|
⑧⑨口口 |④-⑤⑥|
②③口④ |⑦-⑧⑨|
①口口⑩ |⑩-⑪-|
75
口口口口 |①②③④|
⑥⑦口⑤ |⑤-⑥⑦|
④③②①
口口口口

口口口口
口口口口
⑮⑭⑬⑫ |⑧⑨⑩⑪|
⑪⑩⑨⑧ |⑫⑬⑭⑮|
76
②③⑫⑪ |①-②③|
口⑦④① |④-⑤⑥|
口口口⑩ |⑦-⑧⑨|
⑧⑨⑥⑤ |⑩-⑪⑫|
77
口口口口 |①---|
⑤④③② |②③④⑤|
①①口口
口口口口

口口口口
口口口口
⑬⑫⑪⑩ |⑥⑦⑧⑨|
⑨⑧⑦⑥ |⑩⑪⑫⑬|
78
口口①① |①---|
②③④⑤ |②③④⑤|
⑩⑪⑫⑬ |⑥⑦⑧⑨|
⑥⑦⑧⑨ |⑩⑪⑫⑬|
79
①①⑥⑥ |①---|
⑦⑧③② |②③④⑤|
口口口口 |⑥---|
④⑤⑩⑨ |⑦⑧⑨⑩|
80
①①口口 |①-②③|
口口口口 |④-⑤⑥|
⑤⑥③②
④④口口

⑩⑩⑦⑦
⑧⑧⑨⑨
口口口口 |⑦-⑧-|
口口口口 |⑨-⑩-|
81
口口口口 |①---|
口口口口 |----|
口口口口 |----|
①①①① |----|


不確定度: 0

最終更新:2013年03月29日 20:56