True Blue
dj TAKA feat.AiMEE

BASIC

Level: 4
BPM: 164
Notes: 342

1
口口口口 |----|
口口口口 |----|
口口口口 |----|
口口口口 |----|
2
①口口口 |①---|
口②②口 |----|
口口口口 |②---|
口口口口 |----|
3
口口口④ |①---|
口③③口 |②---|
口②②口 |--③-|
口口口① |--④-|
4
口口口口 |----|
口②①口 |----|
口口口口 |----|
口口口口 |①-②-|
5
口口口口 |----|
口口口口 |----|
②②口口 |①---|
①口口口 |②---|
6
口②②口 |①---|
①①①口 |----|
口口口口 |----|
口口口口 |②---|
7
口口口口 |①---|
口②②口 |②---|
④①①口 |③---|
口③③口 |④---|
8
口口口口 |①---|
口口口口 |----|
口口口① |②---|
口②②口 |----|
9
口口口口 |①---|
①④④① |②---|
口③③口 |③---|
口②②口 |④---|
10
①口口① |①---|
口口口口 |②---|
口②②口 |③---|
④③③④ |④---|
11
口口口口 |①---|
①口口① |----|
口口口口 |----|
口口口口 |----|
12
口①②口 |①---|
口③④口 |②---|
口口口口 |③---|
口口口口 |④---|
13
口口口口 |①---|
口口口口 |②---|
口①②口 |③---|
口③④口 |④---|
14
口口口口 |①---|
①口口② |----|
①口口② |②---|
口口口口 |----|
15
口②②口 |①---|
口口口口 |----|
口①①口 |②---|
口口口口 |----|
16
口口口口 |①---|
①口口① |----|
①口口① |----|
口口口口 |----|
17
口口口口 |----|
口口口口 |----|
口口口口 |----|
口口口口 |----|
18
口口口口 |①---|
①口口① |----|
①口口① |----|
口口口口 |----|
19
口口口口 |----|
口口口口 |----|
口口口口 |----|
口口口口 |----|
20
口口口口 |①---|
①口口① |----|
①口口① |----|
口口口口 |----|
21
口口口口 |①---|
①口口① |----|
①口口① |----|
口口口口 |----|
22
口口口口 |①---|
①②②① |----|
①②②① |②---|
口口口口 |----|
23
①口口① |①---|
②口口② |②---|
③口口③ |③---|
④口口④ |④---|
24
口口口口 |----|
口①②口 |----|
口口口口 |①---|
口口口口 |②---|
25
口口口口 |①-②-|
口口口口 |③---|
口⑥⑤④ |④-⑤-|
①②③口 |⑥---|
26
①②③口 |①-②-|
口⑥⑤④ |③---|
口口口口 |④-⑤-|
口口口口 |⑥---|
27
口⑦⑧口 |①-②-|
口⑤⑥口 |③-④-|
口③④口 |⑤-⑥-|
口①②口 |⑦-⑧-|
28
①口口② |①-②-|
③口口④ |③-④-|
⑤口口⑥ |⑤-⑥-|
⑦口口⑧ |⑦-⑧-|
29
口口口口 |①-②-|
①②③口 |③---|
口⑥⑤④ |④-⑤-|
口口口口 |⑥---|
30
①②③口 |①-②-|
口口口口 |③---|
口口口口 |④-⑤-|
口⑥⑤④ |⑥---|
31
⑦⑤⑥⑧ |①-②-|
口③④口 |③-④-|
口①②口 |⑤-⑥-|
口口口口 |⑦-⑧-|
32
口口口口 |①-②-|
①口口② |③-④-|
③口口④ |⑤-⑥-|
⑤⑦⑧⑥ |⑦-⑧-|
33
口②②口 |①---|
口口口口 |----|
口①口口 |②---|
口口口口 |----|
34
①口口口 |①---|
口②口口 |②---|
口口③口 |③---|
口口口口 |----|
35
口口口口 |①---|
口口口口 |②---|
口③④口 |③---|
①口口② |④---|
36
口口口② |①---|
口①③口 |②---|
口④口口 |③---|
口口口口 |④---|
37
口口口口 |----|
口口口口 |①---|
口③口口 |②---|
口①②口 |③---|
38
②口口口 |①---|
口口口口 |----|
口口①口 |②---|
口口口口 |----|
39
口口口① |①---|
口②②口 |----|
口口口口 |②---|
口口口口 |----|
40
④④口口 |①---|
口口口③ |②---|
②②口口 |③---|
口口口① |④---|
41
口口①① |①---|
口口口口 |----|
口口口口 |②---|
口②②口 |----|
42
④口口口 |①---|
口③口口 |②---|
口口②口 |③---|
口口口① |④---|
43
口②①口 |①---|
口④③口 |②---|
口口口口 |③---|
口口口口 |④---|
44
口口口口 |①---|
口口④口 |②---|
口③①口 |③---|
②口口口 |④---|
45
口口口口 |----|
口口口口 |①---|
口口③口 |②---|
口②①口 |③---|
46
口口口口 |①---|
口②②口 |----|
口①口口 |②---|
口口口口 |----|
47
②①①② |①---|
口口口口 |----|
口口口口 |②---|
口口口口 |----|
48
口口口口 |----|
口口口口 |----|
②口口② |①---|
①口口① |②---|
49
口口口口 |①---|
①口口① |----|
口②②口 |②---|
口口口口 |----|
50
口②②口 |①---|
口①①口 |----|
口口口口 |②---|
口口口口 |----|
51
①口口① |①---|
②口口② |----|
口口口口 |②---|
口口口口 |----|
52
口口口口 |----|
口口口口 |----|
口口口口 |----|
口口口口 |----|
53
口口口口 |①---|
口口口口 |----|
口口口口 |②---|
①①②② |----|
54
口口口口 |①---|
口口口口 |----|
①①②② |②---|
口口口口 |----|
55
口口口口 |①---|
口①①口 |----|
口口口口 |----|
口口口口 |----|
56
①口口① |①---|
口④口口 |②---|
口口③口 |③---|
口②口口 |④---|
57
口②①口 |①---|
④口口③ |②---|
口口口口 |③---|
口口口口 |④---|
58
口口口口 |①---|
口口口口 |----|
口口口① |----|
口口口口 |----|
59
①①②② |①---|
③③④④ |②---|
口口口口 |③---|
口口口口 |④---|
60
口口口口 |①---|
口口口口 |②---|
①①②② |③---|
③③④④ |④---|
61
口口口口 |①---|
口①①口 |----|
口口口口 |----|
口口口口 |----|
62
口口口口 |----|
口口口口 |----|
口口口口 |①---|
口①①口 |----|
63
口口口口 |①---|
口②②口 |----|
口①①口 |②---|
口口口口 |----|
64
①口口② |①---|
①口口② |----|
口口口口 |②---|
口口口口 |----|
65
口①①口 |①---|
口②③口 |②---|
口④口口 |③---|
口口口口 |④---|
66
口口口口 |①---|
口口口口 |②---|
口④①口 |③---|
口②③口 |④---|
67
口口口口 |①---|
口①①口 |----|
口②②口 |②---|
口口口口 |----|
68
口口口口 |①---|
口口口口 |②---|
口口口口 |③---|
①②③④ |④---|
69
口口口口 |①---|
口①口口 |----|
口①口口 |----|
口口口口 |----|
70
口口口口 |①---|
口口①口 |----|
口口①口 |----|
口口口口 |----|
71
口①①口 |①---|
口口口口 |----|
口口口口 |----|
口口口口 |----|
72
口口口口 |①---|
口口口口 |②---|
口③④口 |③---|
①口口② |④---|
73
①口口① |①---|
口②口口 |②---|
口口③口 |③---|
口口口④ |④---|
74
口①①口 |①---|
口②②口 |②---|
口③③口 |③---|
口④④口 |④---|
75
②口口④ |①---|
口口口口 |②---|
①口口③ |③---|
口口口口 |④---|
76
口口口口 |①---|
①④④口 |②---|
口③③口 |③---|
口②②口 |④---|
77
①口口① |①---|
口口口口 |----|
口口口口 |----|
口口口口 |----|
78
口口口口 |①---|
①口口① |----|
口口口口 |----|
口口口口 |----|
79
口口口口 |①---|
口口口口 |----|
①②②① |②---|
口口口口 |----|
80
④口口④ |①---|
③口口③ |②---|
②口口② |③---|
口①①口 |④---|
81
口①①口 |①---|
口①①口 |----|
口口口口 |----|
口口口口 |----|


不確定度: 0

最終更新:2013年03月29日 20:56