candii
八王子P

ADVANCED

Level: 6
BPM: 132
Notes: 484

1
口口口口 |----|
口口口口 |----|
口口口口 |----|
口口口口 |----|
2
口⑦⑧口 |①-②-|
①④⑥② |③④--|
口⑨⑩⑤ |⑤-⑥-|
口③口口 |⑦⑧⑨⑩|
3
口⑨⑩口 |①-②-|
①④⑥② |③④--|
口⑦⑧⑤ |⑤-⑥-|
口③口口 |⑦⑧⑨⑩|
4
口⑦⑧口 |①-②-|
①④⑥② |③④--|
口⑨⑩⑤ |⑤-⑥-|
口③口口 |⑦⑧⑨⑩|
5
口⑨⑩口 |①-②-|
①④⑥② |③④--|
口⑦⑧⑤ |⑤-⑥-|
口③口口 |⑦⑧⑨⑩|
6
口⑧⑦口 |①-②-|
②⑥④① |③④--|
⑤⑩⑨口 |⑤-⑥-|
口口③口 |⑦⑧⑨⑩|
7
口⑩⑨口 |①-②-|
②⑥④① |③④--|
⑤⑧⑦口 |⑤-⑥-|
口口③口 |⑦⑧⑨⑩|
8
口⑧⑦口 |①-②-|
②⑥④① |③④--|
⑤⑩⑨口 |⑤-⑥-|
口口③口 |⑦⑧⑨⑩|
9
口口口口 |①-②-|
口③②口 |-③--|
口口口口
口口①口

口⑤④口
口口口口
口⑦⑥口 |④-⑤-|
口⑨⑧口 |⑥⑦⑧⑨|
10
④口⑦⑧ |①--②|
③口①② |-③④-|
⑥口口口 |-⑤⑥-|
⑤口口口 |⑦-⑧-|
11
④口⑦口 |①--②|
③口①② |-③④-|
⑥⑧口口 |-⑤⑥-|
⑤口口口 |⑦-⑧-|
12
④⑨⑦⑧ |①--②|
③口①② |-③④-|
⑥口口口 |-⑤⑥-|
⑤口口口 |⑦-⑧⑨|
13
④口⑦口 |①--②|
③口①② |-③④-|
⑨⑥口口 |-⑤⑥-|
⑧⑤口口 |⑦-⑧⑨|
14
④口⑦⑧ |①--②|
③口①② |-③④-|
⑥口口口 |-⑤⑥-|
⑤口口口 |⑦-⑧-|
15
④口⑦口 |①--②|
③口①② |-③④-|
⑥⑧口口 |-⑤⑥-|
⑤口口口 |⑦-⑧-|
16
④⑨⑦⑧ |①--②|
③口①② |-③④-|
⑥口口口 |-⑤⑥-|
⑤口口口 |⑦-⑧⑨|
17
口口口口 |①---|
口口口② |②-③④|
口①①口
口③④口

口口⑦口
⑤⑧⑨口
口⑥口口 |⑤-⑥-|
口口口口 |⑦-⑧⑨|
18
⑤⑦口② |①-②-|
⑤⑦口④ |③-④-|
①③口⑥ |⑤-⑥-|
①③口⑧ |⑦-⑧-|
19
⑤⑦口② |①-②-|
⑤⑦口④ |③-④-|
①③口⑥ |⑤-⑥-|
①③口⑧ |⑦-⑧-|
20
⑤⑦②口 |①-②-|
⑤⑦④口 |③-④-|
①③⑥口 |⑤-⑥-|
①③⑧口 |⑦-⑧-|
21
⑤⑦②口 |①-②-|
⑤⑦④口 |③-④-|
①③⑥口 |⑤-⑥-|
①③⑧口 |⑦-⑧-|
22
⑤⑦口② |①-②-|
⑤⑦口④ |③-④-|
①③口⑥ |⑤-⑥-|
①③口⑧ |⑦-⑧-|
23
⑤⑦口② |①-②-|
⑤⑦口④ |③-④-|
①③口⑥ |⑤-⑥-|
①③口⑧ |⑦-⑧-|
24
⑤⑦②口 |①-②-|
⑤⑦④口 |③-④-|
①③⑥口 |⑤-⑥-|
①③⑧口 |⑦-⑧-|
25
口口口③ |①--②|
口口口③ |--③-|
①②口①
口②口口

口⑤④口
口④⑤口
⑦⑦⑥⑥ |--④-|
口口口口 |⑤-⑥⑦|
26
口口③③ |①---|
②口口② |--②-|
口口口口 |----|
口①①口 |③---|
27
①①口口 |--①-|
③口口③ |----|
口②②口 |②---|
口口口口 |③---|
28
②口口① |--①-|
口③③口 |-②--|
①口口② |--③-|
口口口口 |----|
29
①口口② |--①-|
⑥④③⑥ |-②③④|
②⑤⑤① |--⑤-|
口口口口 |⑥---|
30
口口③③ |①---|
②口口② |--②-|
口口口口 |----|
口①①口 |③---|
31
①①口口 |--①-|
③口口③ |----|
口②②口 |②---|
口口口口 |③---|
32
②口口① |--①-|
口③③口 |-②--|
①口口② |--③-|
口口口口 |----|
33
②口口① |①--②|
④⑤⑤③ |--③-|
②⑤⑤① |-④--|
④口口③ |⑤---|
34
口口③③ |①---|
②口口② |--②-|
口口口口 |----|
口①①口 |③---|
35
①①口口 |--①-|
口③②口 |-②--|
③⑤④② |③---|
口口口口 |④-⑤-|
36
口口口口 |①---|
③口口③ |--②-|
口口口口 |----|
②②①① |③---|
37
①④⑤② |--①-|
口③③口 |-②--|
②④⑤① |③--④|
口口口口 |--⑤-|
38
口口③③ |①---|
②口口② |--②-|
口口口口 |----|
口①①口 |③---|
39
①①口口 |--①-|
口③②口 |-②--|
③⑤④② |③--④|
口口口口 |--⑤-|
40
①口口① |①--②|
口口⑤口 |--③-|
口④口口 |-④--|
②②③③ |⑤---|
41
②口口③ |①--②|
口④④口 |--③-|
③④④② |-④--|
口①①口 |----|
42
口①①口 |①---|
口口口口 |----|
①口口① |----|
口口口口 |----|
43
口口口口 |----|
②①③④ |--①-|
①②④③ |②-③-|
口⑤⑤口 |④-⑤-|
44
口口口口 |----|
口口口口 |----|
口口口口 |----|
口口口口 |----|
45
口②③口 |----|
①口口④ |--①-|
口②③口 |②-③-|
①口口④ |④---|
46
口口口口 |----|
口口口口 |----|
口口口口 |----|
口口口口 |----|
47
①口①口 |----|
口②口② |--①-|
③口③口 |②-③-|
口④口④ |④---|
48
口①①口 |①--②|
②③③② |--③-|
④④⑤⑤ |--④-|
口⑥⑥口 |⑤-⑥-|
49
口①②口 |①--②|
口②①口 |--③-|
③④④③ |-④--|
口口口口 |----|
50
口④口口 |----|
①②口口 |①---|
①②口口 |②---|
口口③③ |③-④-|
51
口口口口 |①-②-|
口②①口 |③-④-|
口④③口 |⑤-⑥-|
口⑥⑤口 |----|
52
口口④口 |----|
口口②① |①---|
口口②① |②---|
③③口口 |③-④-|
53
口口口口 |①-②-|
口①②口 |③-④-|
口③④口 |⑤-⑥-|
口⑤⑥口 |----|
54
①口①口 |①--②|
口②口② |--③-|
③口③口
口口口口

口⑤⑤口
口口口口
口口口口 |-④--|
口④口④ |⑤---|
55
④口口① |①--②|
口③②口 |--③-|
④⑤⑤① |--④-|
口③②口 |⑤---|
56
⑤①④⑥ |①--②|
①⑤⑥④ |--③-|
③口口② |④--⑤|
口③②口 |--⑥-|
57
口③③口 |①--②|
口④④口 |--③-|
⑤②①⑤ |--④-|
②口口① |⑤---|


不确定度: 0

最終更新:2012年11月07日 23:19