紅焔
PON

EXTREME

Level: 10
BPM: 175
Notes: 889

1
口口口口 |----|
口口口口 |----|
口口口口 |----|
口口口口 |----|
2
口⑪⑦① |①②③④|
⑫⑧②⑨ |-⑤⑥-|
口③⑩⑤ |⑦⑧⑨⑩|
④口⑥口 |-⑪⑫-|
3
口⑬⑦① |①②③④|
⑭⑧②⑩ |-⑤⑥-|
⑨③⑪⑤ |⑦⑧⑨⑩|
④⑫⑥口 |⑪⑫⑬⑭|
4
口⑪⑦① |①②③④|
⑫⑧②⑨ |-⑤⑥-|
口③⑩⑤ |⑦⑧⑨⑩|
④口⑥口 |-⑪⑫-|
5
口口⑥⑤ |①②③④|
口口①口 |-⑤⑥-|
⑦②⑨③ |⑦---|
⑧⑦④口 |⑧-⑨-|
6
口口④口 |①---|
①④②③ |②---|
③②④口 |③---|
口口②③ |④---|
7
③②口① |①---|
①④②③ |②---|
③②⑤① |③---|
口口口口 |④-⑤-|
8
口口④口 |①---|
口④②③ |②---|
③②④口 |③---|
口①②③ |④---|
9
口④口① |①-②-|
①口③口 |③-④-|
口口口①
口②口口

口口口口
口口口⑥
⑤⑧口⑧ |⑤-⑥-|
⑦口⑦口 |⑦-⑧-|
10
①④①口 |①---|
口②④③ |②---|
③④②口 |③---|
口②口③ |④---|
11
③口②① |①---|
①②④③ |②---|
③⑤②① |③---|
口口口口 |④-⑤-|
12
④口④口 |①-②-|
口②口口 |③---|
口口③口 |④--⑤|
①⑤①⑤ |----|
13
⑥①⑥① |①--②|
④③①④ |--③-|
口②④② |④--⑤|
③⑤③⑤ |--⑥-|
14
口①⑥① |①--②|
口③①④ |--③-|
⑤②⑤② |④-⑤-|
③⑦③⑦ |⑥-⑦-|
15
⑥①⑥① |①--②|
④③①④ |--③-|
口②④② |④--⑤|
③⑤③⑤ |--⑥-|
16
口①⑥① |①--②|
口③①④ |--③-|
⑤②⑤② |④-⑤-|
③⑦③⑦ |⑥-⑦-|
17
⑥①⑥① |①--②|
④③①④ |--③-|
口②④② |④--⑤|
③⑤③⑤ |--⑥-|
18
口①⑥① |①--②|
口③①④ |--③-|
⑤②⑤② |④-⑤-|
③⑦③⑦ |⑥-⑦-|
19
⑥①⑥① |①--②|
④③①④ |--③-|
口②④② |④--⑤|
③⑤③⑤ |--⑥-|
20
口①⑥① |①--②|
口③①④ |--③-|
⑤②⑤② |④-⑤-|
③⑦③⑦ |⑥-⑦-|
21
②⑥口⑥ |①---|
口③①③ |②-③-|
④⑤④⑤ |④-⑤-|
口口口口 |⑥---|
22
口④口④ |①---|
②②②② |②---|
③口口③ |③---|
①①①① |④---|
23
③⑤③⑤ |①--②|
口②④② |--③-|
④③①④ |④--⑤|
⑥①⑥① |--⑥-|
24
③⑦③⑦ |①--②|
⑤②⑤② |--③-|
口③①④ |④-⑤-|
口①⑥① |⑥-⑦-|
25
②⑤④⑤ |①---|
口③口③ |②-③-|
④口①口 |④---|
口口口口 |⑤---|
26
口⑥口⑥ |①---|
②口②⑤ |②-③-|
口④③④ |④-⑤-|
①①①① |⑥---|
27
①⑥①⑥ |①--②|
④①③④ |--③-|
②④②口 |④--⑤|
⑤③⑤③ |--⑥-|
28
①⑥①口 |①--②|
④①③口 |--③-|
②⑤②⑤ |④-⑤-|
⑦③⑦③ |⑥-⑦-|
29
②口②口 |①--②|
⑦①⑤④ |--③-|
口⑥口④ |④-⑤-|
口③口口 |⑥-⑦-|
30
③口①口 |①--②|
口②④④ |--③-|
③⑤①⑤ |----|
口②口口 |④-⑤-|
31
口口口口 |①---|
口口口口 |----|
口口口口
①口口①

口口③口
口口口④
②口③口 |②-③-|
口口⑤⑤ |④-⑤-|
32
①①口③ |①--②|
口②口口 |--③-|
口口口①
③③口口

⑦⑦口口
口口口口
④⑤④⑦ |④--⑤|
口口口⑥ |⑥-⑦-|
33
口口②③ |①-②-|
口⑥①③ |--③-|
⑦口⑤口 |④-⑤-|
口④口口 |⑥-⑦-|
34
③口口口 |①--②|
口口①口 |--③-|
口②口口
口口①口

口口口口
④口口口
口口口口 |④---|
⑥⑤⑥⑤ |⑤-⑥-|
35
口口口口 |①---|
口②②口 |--②-|
①①①①
口口口口

③③③③
口口口口
④口口口 |③---|
④口口口 |--④-|
36
③③③③ |①--②|
②口口② |--③-|
口④④① |----|
口②②① |④---|
37
口口口口 |①---|
①①①① |--②-|
口口口口 |③---|
③②②③ |----|
38
口口口口 |①--②|
口②口② |--③-|
①口①口
③口③口

口⑥④⑥
⑤口⑤口
口④⑦④ |④-⑤-|
口⑤口口 |⑥-⑦-|
39
口口口口 |①---|
口口口口 |----|
口口口口
口口口①

口口口口
口口口口
口口④口 |②③-④|
②③⑥⑤ |-⑤⑥-|
40
口③③③ |①-②-|
①①①口 |③---|
口②口口 |----|
④口④⑤ |④-⑤-|
41
口⑧⑥⑧ |①-②-|
⑤④⑦④ |③-④-|
口②①② |⑤-⑥⑦|
口③口口 |--⑧-|
42
①④口④ |①-②-|
口口⑤口 |③---|
口⑤②② |----|
③③口口 |④-⑤-|
43
口④口口 |①---|
①③口③ |----|
②口口① |②--③|
口口口口 |--④-|
44
口④口④ |①-②-|
口⑤②⑤ |③---|
口①①① |----|
③③③口 |④-⑤-|
45
②口②口 |①---|
⑥⑤①⑥ |②---|
口④①③ |③-④-|
口口口口 |⑤-⑥-|
46
口口口口 |①---|
口口口口 |----|
口口口口 |----|
①①①① |----|
47
口口口① |①②③-|
口口②口 |----|
口③⑥口 |④⑤-⑥|
④⑤⑧⑦ |-⑦⑧-|
48
口③③③ |①-②-|
①①①口 |③---|
口②口口 |----|
④口④⑤ |④-⑤-|
49
口⑧⑥⑧ |①-②-|
⑤④⑦④ |③-④-|
口②①② |⑤-⑥⑦|
口③口口 |--⑧-|
50
①⑤口⑤ |①--②|
④口口② |--③-|
口⑥①口 |④---|
④②③④ |⑤-⑥-|
51
①⑤①口 |①---|
③④口② |----|
口口口口 |②-③④|
口口口口 |--⑤-|
52
④④口口 |①-②-|
口⑤②口 |③---|
口①①① |----|
③③③口 |④-⑤-|
53
口口口口 |①-②-|
口⑦口⑥ |③--④|
④①⑤③ |⑤-⑥⑦|
口口②② |----|
54
④②③① |①---|
②④①④ |②---|
④①④② |③--④|
①③②④ |----|
55
口⑩⑭① |①②③④|
⑪⑬②⑨ |-⑤⑥⑦|
⑫③⑧⑤ |⑧⑨-⑩|
④⑦⑥口 |⑪⑫⑬⑭|
56
⑫⑪⑨口 |①-②-|
⑩⑧③⑥ |③--④|
⑦②⑤口 |⑤⑥⑦⑧|
口④口① |⑨⑩⑪⑫|
57
口⑩口① |①②③④|
⑪⑬②⑨ |-⑤⑥⑦|
⑫③⑧⑤ |⑧⑨-⑩|
④⑦⑥口 |⑪⑫⑬-|
58
口口④口 |①---|
口口口③ |②---|
④口③② |③---|
口③②① |④---|
59
口⑩⑭① |①②③④|
⑪⑬②⑨ |-⑤⑥⑦|
⑫③⑧⑤ |⑧⑨-⑩|
④⑦⑥口 |⑪⑫⑬⑭|
60
①⑦口② |①-②-③-|
⑪⑩③⑥ |④-⑤-⑥-|
⑨⑤⑧④ |⑦-⑧-⑨-|
口口口⑫ |⑩-⑪-⑫-|
61
口⑩⑭① |①②③④|
⑪⑬②⑨ |-⑤⑥⑦|
⑫③⑧⑤ |⑧⑨-⑩|
④⑦⑥口 |⑪⑫⑬⑭|
62
⑧⑦口⑧ |①-②-|
⑥口⑤⑥ |③-④-|
口④口口 |⑤-⑥-|
②口③① |⑦-⑧-|
63
口口口口 |①-②-|
⑧⑤口⑦ |③-④-|
④⑥②③ |⑤-⑥-|
①口口口 |⑦-⑧-|
64
④③⑤② |①-②-|
口⑥①口 |③-④-|
口口⑦口 |⑤-⑥⑦|
口⑧口⑨ |⑧-⑨-|
65
口口口口 |①-②-|
口⑥口口 |③-④-|
⑤③⑦④ |⑤-⑥⑦|
①⑧②⑨ |⑧-⑨-|
66
口口口口 |①-②-|
口口口口 |③-④-|
④口口③
①口②口

⑤口口⑨
口⑥⑩口
口⑪⑦口 |⑤⑥⑦⑧|
⑫口口⑧ |⑨⑩⑪⑫|
67
③①②④ |①--②|
②④口① |--③-|
口⑤⑥③ |-④--|
⑥口口⑤ |⑤--⑥|
68
③口口③ |--①-|
口③③⑤ |-②--|
①口口② |③---|
④②①④ |④-⑤-|
69
⑤④口⑤ |①---|
①口口口 |②-③-|
口②③④ |④---|
口口①口 |⑤---|
70
口口口口 |①-②-|
③②①口 |③---|
口口口口
口口③口

口口口口
口口⑥⑤
口④口口 |④---|
口口口口 |⑤-⑥-|
71
口口④⑤ |①---|
口①口口 |②-③-|
④③②口 |④---|
⑤口口① |⑤---|
72
口⑤口⑥ |①-②-|
口①②③ |③-④-|
口③④⑤ |⑤---|
⑥口口口 |⑥---|
73
⑤口口口 |①-②-|
①③②④ |③---|
口口⑤口 |④--⑤|
口④①③ |----|
74
④②③① |①---|
②④①④ |②---|
④①④② |③--④|
①③②④ |----|
75
口⑪⑦① |①②③④|
⑫⑧②⑨ |-⑤⑥-|
口③⑩⑤ |⑦⑧⑨⑩|
④口⑥口 |-⑪⑫-|
76
口⑬⑦① |①②③④|
⑭⑧②⑩ |-⑤⑥-|
⑨③⑪⑤ |⑦⑧⑨⑩|
④⑫⑥口 |⑪⑫⑬⑭|
77
口⑪⑦① |①②③④|
⑫⑧②⑨ |-⑤⑥-|
口③⑩⑤ |⑦⑧⑨⑩|
④口⑥口 |-⑪⑫-|
78
口⑬⑦① |①②③④|
⑭⑧②⑩ |-⑤⑥-|
⑨③⑪⑤ |⑦⑧⑨⑩|
④⑫⑥口 |⑪⑫⑬⑭|
79
口口②口 |①---|
口②口③ |----|
②口③口 |②---|
口③口① |③---|
80
口⑪⑦① |①②③④|
⑫⑧②⑨ |-⑤⑥-|
口③⑩⑤ |⑦⑧⑨⑩|
④口⑥口 |-⑪⑫-|
81
口⑬⑦① |①②③④|
⑭⑧②⑩ |-⑤⑥-|
⑨③⑪⑤ |⑦⑧⑨⑩|
④⑫⑥口 |⑪⑫⑬⑭|
82
口口口口 |①---|
口口口口 |----|
口口口口 |----|
口口口① |----|


不確定度: 0

最終更新:2013年02月26日 21:27