HEART BEAT FORMULA
TAG

EXTREME

Level: 9
BPM: 230
Notes: 676

1
口口口口 |----|
口口口口 |----|
口口口口 |----|
口口口口 |----|
2
①④⑤口 |①-②-|
口口口口 |③---|
③⑤④② |④---|
口口②口 |⑤---|
3
④口口④ |①---|
②①①③ |②-③-|
口口口口 |--④-|
⑤②③⑤ |--⑤-|
4
口①①口 |----|
③口口② |①---|
②口口③ |②---|
口口口口 |③---|
5
④口口④ |①---|
口②③口 |②-③-|
口①①口 |--④-|
⑤②③⑤ |--⑤-|
6
口③口口 |①-②-|
①④④② |③---|
口⑤②⑤ |④---|
口口口口 |⑤---|
7
②④④③ |①---|
②口口③ |②-③-|
①口口口 |--④-|
口⑤⑤① |--⑤-|
8
口口口口 |----|
口①①口 |①---|
口③②口 |②---|
②口口③ |③---|
9
①④④① |①---|
②④④③ |②-③-|
口口口口 |--④-|
口②③口 |----|
10
口口口口 |①---|
④口口② |--②-|
口⑤口口 |③-④-|
①口③口 |--⑤-|
11
口③口① |--①-|
口口口口 |②---|
口口②口 |③---|
口口④口 |④---|
12
口④口② |①---|
①口口口 |--②-|
⑤口③口 |③-④-|
口口口口 |--⑤-|
13
口口口口 |--①-|
口①②口 |②-③-|
口③④口 |④-⑤-|
⑤口口口 |----|
14
②②⑥⑤ |①---|
口口口② |②---|
④④口③ |③-④-|
口①①口 |⑤-⑥-|
15
口口口口 |①-②-|
①①②③ |③-④-|
⑥⑥⑥⑤ |--⑤-|
④④口口 |⑥---|
16
④④⑥⑤ |①---|
②②口③ |②---|
口口口口 |③-④-|
口口②① |⑤-⑥-|
17
口口口口 |①-②-|
⑥⑥⑥⑤ |③-④-|
①①②③ |--⑤-|
④④口口 |⑥---|
18
④④⑥⑤ |①---|
口口口口 |②---|
②②③口 |③-④-|
口口①② |⑤-⑥-|
19
口口口口 |①-②-|
①①②③ |③-④-|
⑥⑥⑥⑤ |--⑤-|
④④口口 |⑥---|
20
④④⑥⑤ |①---|
②②③口 |②---|
口口口口 |③-④-|
口口①② |⑤-⑥-|
21
口口口⑥ |①-②-|
⑥⑥⑤口 |③-④-|
④④②③ |⑤---|
①①口口 |⑥---|
22
②②⑥⑤ |①---|
口口口② |②---|
④④口③ |③-④-|
①口口① |⑤-⑥-|
23
口口口口 |①-②-|
①①②③ |③-④-|
⑥⑥⑥⑤ |--⑤-|
④④口口 |⑥---|
24
④④⑥⑤ |①---|
②②口③ |②---|
口口口口 |③-④-|
口口②① |⑤-⑥-|
25
口口口口 |①-②-|
⑥⑥⑥⑤ |③-④-|
①①②③ |--⑤-|
④④口口 |⑥---|
26
④④⑥⑤ |①---|
口口口口 |②---|
②②③口 |③-④-|
口口①② |⑤-⑥-|
27
口口口口 |①-②-|
①①②③ |③-④-|
⑥⑥⑥⑤ |--⑤-|
④④口口 |⑥---|
28
④④⑥⑤ |①---|
②②③口 |②---|
口口口口 |③-④-|
口口①② |⑤-⑥-|
29
口口口⑥ |①-②-|
⑥⑥⑤口 |③-④-|
④④②③ |--⑤-|
①①口口 |⑥---|
30
口口口⑥ |①---|
口口口口 |--②-|
口⑤③② |③-④-|
①④④口 |⑤-⑥-|
31
④口口口 |--①-|
①口③② |②---|
口口口口 |③---|
口口口口 |④---|
32
口口口口 |①---|
口①③口 |--②-|
④口口② |③-④-|
口口⑤口 |--⑤-|
33
口①②口 |--①-|
口口口口 |②---|
口③⑤口 |③---|
口④口口 |④-⑤-|
34
口口口口 |①---|
口①口② |--②-|
③口口口 |③---|
③口口④ |--④-|
35
①口口口 |①---|
①②口口 |②---|
口口③口 |③---|
口④口口 |④---|
36
口口口② |①---|
③口①口 |--②-|
口口口④ |③---|
口口口口 |--④-|
37
口口口口 |①---|
口口口② |--②-|
③⑤口口 |③-④-|
①口④口 |⑤---|
38
口口①⑥ |①---|
口口口口 |--②-|
⑤口②口 |③-④-|
③口④口 |⑤-⑥-|
39
口口口口 |--①-|
④①②口 |②---|
口口③口 |③---|
口口口口 |④---|
40
②口口① |①---|
口口口③ |--②-|
口④口口 |③-④-|
口口口⑤ |--⑤-|
41
口口①口 |--①-|
⑥②口口 |②-③-|
口口⑤口 |④---|
④口③口 |⑤-⑥-|
42
口④⑤① |①---|
口口②口 |--②-|
口口口口 |③---|
口③口口 |④-⑤-|
43
口口口口 |--①-|
口口口口 |②---|
②④口① |③---|
口口③口 |④---|
44
口④⑤① |①---|
口③②口 |--②-|
口口口口 |③---|
口口口口 |④-⑤-|
45
④口口口 |--①-|
口⑤口② |②-③-|
③口⑥口 |④-⑤-|
①口口⑦ |⑥-⑦-|
46
⑤②③⑤ |①---|
②④④③ |②-③-|
口口口① |--④-|
口口①口 |--⑤-|
47
口口口⑤ |--①-|
口口④口 |----|
①③口① |②-③-|
②口口口 |④-⑤-|
48
口口①口 |①---|
口口口① |②-③-|
③④④② |--④-|
⑤③②⑤ |--⑤-|
49
②口口⑤ |--①-|
①③①口 |----|
口口④口 |②-③-|
口口口口 |④-⑤-|
50
口口①口 |①---|
口口口① |--②-|
②口口③ |----|
口②③口 |③---|
51
②口口② |①---|
口②②口 |----|
口①①口 |②---|
①口口① |----|
52
口①①口 |①---|
②口口③ |②-③-|
口口口口 |----|
②口口③ |----|
53
口口口口 |----|
口①口口 |----|
口口口口 |----|
①口口口 |①---|
54
③④④② |①---|
口口①口 |--②-|
②口口③ |--③-|
口口口① |--④-|
55
④口口口 |----|
口③口口 |----|
口口②口 |①-②-|
口口口① |③-④-|
56
口①②口 |①---|
①口口② |②-③-|
③⑤⑤口 |--④-|
④③口④ |--⑤-|
57
③①口口 |--①-|
①口口口 |②---|
③口口② |----|
口口②口 |③---|
58
口口口口 |①---|
口口口① |----|
口②②口 |----|
口口口① |②---|
59
③口口③ |①---|
口口口口 |--②-|
①口口② |----|
②口口① |③---|
60
口口②口 |①---|
口①①② |②-③-|
③口口口 |----|
口③口口 |----|
61
②口口口 |----|
口③口① |--①-|
口口④口 |②-③-|
口口口⑤ |④-⑤-|
62
⑤②③⑤ |①---|
②④④③ |②-③-|
口口口① |--④-|
口口①口 |--⑤-|
63
口口口⑤ |--①-|
口口④口 |----|
①③口① |②-③-|
②口口口 |④-⑤-|
64
口口①口 |①---|
口口口① |②-③-|
③④④② |--④-|
⑤③②⑤ |--⑤-|
65
②口口⑤ |--①-|
①③①口 |----|
口口④口 |②-③-|
口口口口 |④-⑤-|
66
口口①口 |①---|
口口口① |--②-|
②口口③ |----|
口②③口 |③---|
67
②口口② |①---|
口②②口 |----|
口①①口 |②---|
①口口① |----|
68
⑥③④口 |①-②-|
①⑤⑤② |③-④-|
③⑤⑤④ |--⑤-|
⑥①②口 |--⑥-|
69
口②②① |--①-|
④口口口 |--②-|
口④口口 |③---|
口③③① |④---|
70
③④④② |①---|
口口口① |--②-|
②口①③ |--③-|
口口口口 |--④-|
71
④口口口 |----|
口③口口 |----|
口口②口 |①-②-|
口口口① |③-④-|
72
口①②口 |①---|
①口口② |②-③-|
③⑤⑤口 |--④-|
④③口④ |--⑤-|
73
③①口口 |--①-|
①口口口 |②---|
③口口② |----|
口口②口 |③---|
74
口口口口 |①---|
口口口① |----|
口②②口 |----|
口口口① |②---|
75
③口口③ |①---|
口口口口 |--②-|
①口口② |----|
②口口① |③---|
76
口②口口 |①---|
②①①口 |----|
口口口③ |----|
口口③口 |②-③-|
77
口口口口 |----|
口口②口 |----|
①②口口 |①---|
口①口口 |②---|
78
②口①② |①---|
口口口① |--②-|
口口口口 |----|
③③口口 |--③-|
79
口口口口 |--①-|
口①口口 |②---|
③口口④ |③---|
口口②② |④---|
80
②口⑤⑤ |①---|
口口口口 |--②-|
④口③口 |③-④-|
①①口③ |--⑤-|
81
口口口口 |--①-|
①③③口 |②---|
口①口② |③---|
④口②④ |④---|
82
口口⑤② |①---|
③口口⑤ |--②-|
①③口④ |③-④-|
口①口口 |--⑤-|
83
③口口④ |--①-|
③口④口 |②---|
①口②口 |③---|
口①口② |④---|
84
口①口口 |①-②-|
口③⑥② |③-④-|
⑦④口④ |--⑤-|
口⑤⑤口 |⑥-⑦-|
85
口口口口 |①-②-|
④口口⑤ |--③-|
口③①③ |④---|
②口口② |⑤---|
86
①口口口 |①---|
口③②口 |--②-|
口④④口 |--③-|
口②③口 |--④-|
87
①③③口 |--①-|
口口口② |②---|
①口口口 |③---|
口④④② |④---|
88
口④④口 |①---|
①②②口 |--②-|
口③③① |--③-|
口口口口 |--④-|
89
①口口口 |--①-|
①③③口 |②---|
口口口② |③---|
口④④② |④---|
90
口口口口 |①---|
③口口② |--②-|
②①①③ |----|
口口口口 |③---|
91
②口口② |--①-|
口①①口 |----|
口③口口 |②---|
口口③口 |③---|
92
口口口口 |①---|
②口口② |--②-|
口口①口 |----|
③①口③ |③---|
93
口③口口 |--①-|
③②②口 |----|
口①①④ |②---|
口口④口 |③-④-|
94
口口口④ |----|
口口口口 |①-②-|
口①②口 |--③-|
③口口口 |--④-|
95
口口口口 |--①-|
①口口口 |--②-|
口口②口 |--③-|
口③口口 |----|
96
口②③口 |①---|
口⑤口① |②-③-|
④口口口 |--④-|
口口口口 |--⑤-|
97
口口口口 |--①-|
②口口口 |--②-|
口③④① |③-④-|
口⑤⑥口 |⑤-⑥-|


不確定度: 0

最終更新:2013年02月26日 21:38