Magnetic
Sota Fujimori

EXTREME

Level: 10
BPM: 160
Notes: 795

1
口口口口 |----|
口口口口 |----|
口口口口 |----|
口口口口 |----|
2
①口口⑥ |①---|
口口⑦口 |②③④⑤|
⑤⑧口④ |⑥-⑦-|
③口口② |⑧---|
3
⑤口口口 |①---|
口④口③ |②--③|
口口②口 |④---|
口口口① |⑤---|
4
口口口⑤ |①---|
③口④口 |②--③|
口②口口 |④---|
①口口口 |⑤---|
5
⑥口口口 |①-②-|
口⑤口④ |③--④|
口口③口 |⑤---|
口②口① |⑥---|
6
口口口⑥ |①--②|
⑤口④口 |③---|
口③口② |④-⑤-|
①口口口 |⑥---|
7
⑧口⑨口 |①-②-|
口⑥⑤口 |③-④⑤|
②④③⑦ |⑥-⑦-|
口口口① |⑧-⑨-|
8
口⑨口⑧ |①-②-|
⑦⑤⑥② |③-④⑤|
口③④口 |⑥-⑦-|
①口口口 |⑧-⑨-|
9
⑧口⑨口 |①-②-|
口⑥⑤口 |③-④⑤|
②④③⑦ |⑥-⑦-|
口口口① |⑧-⑨-|
10
口口口口 |①---|
口口口口 |----|
口口口口
口①口①

②口口②
③口口③
④口口④ |②-③-④-|
⑤口口⑤ |⑤---|
11
⑥⑤口⑦ |①-②-|
④③口口 |③④⑤⑥|
口⑩⑨⑧ |⑦-⑧-|
口①②口 |⑨-⑩-|
12
⑦⑦⑤⑥ |①-②-|
⑧⑧③④ |③④⑤⑥|
⑨⑨口口 |⑦-⑧-|
口②①口 |⑨---|
13
⑦口口⑩ |①-②-|
口⑧⑨口 |③④⑤⑥|
口口⑥⑤ |⑦-⑧-|
①②④③ |⑨-⑩-|
14
⑨⑩口口 |①-②-|
口口⑦⑦ |③④⑤⑥|
⑤⑥⑧⑧ |⑦--⑧|
③④②① |--⑨⑩|
15
口口①口 |①-②-|
⑥⑤⑧⑦ |③④⑤⑥|
④③口口 |⑦-⑧-|
⑩⑨口② |⑨-⑩-|
16
⑦⑧⑨⑨ |①②③④|
⑤⑥⑩⑩ |⑤⑥⑦⑧|
口口④③ |⑨-⑩-|
⑪⑪②① |⑪---|
17
口口口口 |①-②-|
口⑤⑥口 |③④⑤⑥|
口③④口
口口②①

口口口口
口口口口
口口口口 |⑦-⑧-|
⑦⑧⑩⑨ |⑨-⑩-|
18
①④④① |-①②③|
②口口② |--④-|
③口口③
口口口口

⑧口口⑧
口⑤⑤口
口⑥⑥口 |-⑤⑥⑦|
口⑦⑦口 |--⑧-|
19
⑩⑨口口 |①-②-|
③④口② |③④⑤⑥|
⑤⑥口口 |⑦-⑧-|
①口⑧⑦ |⑨-⑩-|
20
⑪⑫⑬⑬ |①②③④|
⑨⑩⑦⑧ |⑤⑥⑦⑧|
③④⑤⑥ |⑨⑩⑪⑫|
①②口口 |⑬---|
21
口⑦口口 |①-②-|
⑧口④③ |③④⑤⑥|
⑨②⑥⑤ |⑦-⑧-|
①⑩口口 |⑨-⑩-|
22
口口口口 |①-②③|
口⑥口⑦ |④⑤⑥⑦|
口④口⑤
②口③①

⑪口⑧口
⑫口⑨口
⑬口口口 |⑧-⑨-|
口⑩口⑩ |⑩--⑪⑫⑬|
23
口口口⑥ |①---|
口⑤④⑦ |②③④⑤|
口③②⑧ |⑥-⑦-|
①口⑨口 |⑧-⑨-|
24
口口口口 |①-②-|
口⑤⑥口 |③④⑤⑥|
口③④口
②①口口

⑦口口口
⑧口口口
⑨口口口 |⑦-⑧-|
口⑩口口 |⑨-⑩-|
25
⑤⑪⑩③ |①-②-|
⑥⑫④⑨ |③④⑤⑥|
⑦口口口 |⑦-⑧-|
②⑧①口 |⑨⑩⑪⑫|
26
⑨⑧⑨⑧ |①-②-|
⑥口⑦口 |③-④⑤|
④①⑤口 |⑥⑦-⑧|
③口②③ |-⑨--|
27
口⑦⑥口 |①②③④|
口⑨⑧⑤ |--⑤-|
⑨④⑤③ |-⑥⑦⑧|
口②口① |--⑨-|
28
②口口③ |--①-|
口口口口 |②-③-|
口②③①
口口①口

口⑤④口
口⑦⑥口
口口口⑧ |④⑤⑥⑦|
口口⑧口 |--⑧-|
29
⑦⑤口⑥ |--①②|
⑤口⑧④ |③④⑤-|
③⑦⑥口 |⑥--⑦|
①⑧口② |--⑧-|
30
口口③口 |--①-|
口②口口 |②-③-|
①口口口
口口口口

④口口⑤
⑥口口⑦
⑧口口口 |④⑤⑥⑦|
口⑧口口 |--⑧-|
31
口⑥⑤口 |①②③④|
⑥④③⑦ |⑤---|
⑧②①⑤ |⑥--⑦|
口⑧⑦口 |--⑧-|
32
③口①口 |--①-|
④②④⑥ |②-③-|
⑥⑤口⑤ |④-⑤-|
口口口口 |--⑥-|
33
口③①④ |-①-②|
⑥②口⑤ |③---|
⑤口②⑥ |-④-⑤|
④①③口 |--⑥-|
34
②①口⑤ |-①-②|
⑤③④口 |---③|
口④③⑤ |-④-⑤|
⑤口①② |----|
35
⑤口⑥口 |①-②③|
⑧⑦口口 |④-⑤-|
⑨口④口 |⑥-⑦-|
⑧③②① |⑧-⑨-|
36
⑦口⑤① |①-②-|
⑧口③口 |③-④-|
⑦②④⑥ |⑤-⑥-|
口口③口 |⑦-⑧-|
37
口口③口 |①-②-|
口②④口 |③-④-|
口口③口
口口口①

口口口口
口口口⑥
口口口⑧ |⑤-⑥-|
口⑦⑤⑦ |⑦-⑧-|
38
⑨②③① |①-②③|
口④⑪⑩ |④-⑤-|
口口⑧口 |⑥⑦⑧-|
⑤⑦⑥口 |⑨-⑩⑪|
39
口③④③ |①-②-|
⑥⑦⑧⑦ |③-④-|
⑤口口① |⑤-⑥-|
②口口口 |⑦-⑧-|
40
①②口口 |①-②-|
⑤⑥口口 |③-④-|
口③④③ |⑤-⑥-|
口⑦⑧⑦ |⑦-⑧-|
41
⑥口⑥④ |①-②-|
③口③⑤ |③-④-|
口②口口 |⑤-⑥-|
①口口口 |----|
42
口口口口 |①---|
口①①口 |----|
②②②② |②---|
②口②口 |----|
43
③口③口 |①---|
③③③③ |--②-|
②口②口 |③---|
口①口① |----|
44
⑦⑥口口 |--①②|
⑧口⑤口 |③-④-|
⑨口口④ |⑤-⑥-|
⑩③②① |⑦⑧⑨⑩|
45
③口口③ |①---|
口④⑤口 |--②-|
口②②口 |③---|
口口口① |--④⑤|
46
口口③口 |--①-|
③口口② |--②-|
①口口③ |--③-|
②①②① |----|
47
①①⑤口 |①-②-|
⑤②②⑤ |③-④-|
③③口口 |⑤---|
口口④④ |----|
48
⑥口口⑦ |--①②|
⑤②①⑧ |③-④-|
④口③⑨ |⑤-⑥-|
口口口⑩ |⑦⑧⑨⑩|
49
口口口口 |--①-|
③③口口 |②-③-|
口②②口
①①口口

口口④④
口口口口
口口口口 |④---|
口⑥⑤口 |--⑤⑥|
50
④④④④ |--①-|
①口口② |--②-|
①③③② |③-④-|
口口口口 |----|
51
④口口③ |①---|
口口口口 |--②-|
口口口口 |--③-|
①口口② |④---|
52
⑧⑧口口 |①---|
⑦⑦⑥口 |②③④⑤|
口⑤④口 |⑥-⑦-|
①③②口 |⑧---|
53
⑨⑥⑧口 |①---|
⑥④⑤① |②③④⑤|
⑥②③① |⑥---|
⑦口①⑦ |⑦-⑧⑨|
54
口口口口 |①-②-|
口口口① |③-④-|
口口口②
口④③口

口口⑧口
口⑦⑥⑧
⑤口口口 |⑤-⑥⑦|
口口口口 |⑧---|
55
⑥①口口 |①---|
①⑤④口 |②③④⑤|
⑦③②口 |⑥-⑦-|
口⑧⑨口 |⑧-⑨-|
56
口口④③ |①-②-|
②口⑤口 |③-④⑤|
口口⑥① |⑥---|
⑦口口⑦ |⑦---|
57
口口⑥⑧ |①---|
①④⑤⑥ |②③④⑤|
①②③⑥ |⑥---|
⑦①口⑦ |⑦-⑧-|
58
⑦①口⑦ |①-②-|
②⑥⑦口 |③-④-|
③口⑥⑤ |⑤-⑥-|
口④⑤口 |⑦---|
59
口⑦⑧口 |①---|
⑥口口⑨ |②③④⑤|
口⑤④口 |⑥-⑦-|
①③②① |⑧-⑨-|
60
口⑥⑥口 |①---|
⑥②②⑥ |--②③|
⑤③③⑤ |④-⑤-|
①④④① |⑥---|
61
①口口① |①---|
口⑤④口 |②③④⑤|
口③②口
口口口口

口⑥⑥⑦
⑥口口⑥
⑧口口⑦ |⑥---|
⑨口口口 |⑦-⑧⑨|
62
⑧口口⑧ |①-②-|
口口②③ |③-④-|
口⑦⑥口 |⑤-⑥⑦|
口①⑤④ |⑧---|
63
口⑤④口 |①---|
口③②口 |②③④⑤|
①口口口
①①口口

⑥口口口
⑦口口口
⑧口口口 |⑥-⑦-|
口⑨口口 |⑧-⑨-|
64
口口⑤④ |①-②-|
口③口口 |③-④⑤|
口口②口
口口①口

口口口口
口口口⑥
口⑧⑨口 |⑥---|
口⑦⑦口 |⑦-⑧⑨|
65
①①⑥⑥ |①---|
①口口⑥ |②③④⑤|
⑤口口④ |⑥---|
③⑦⑦② |⑦---|
66
①②④③ |①-②-|
①②④③ |③-④-|
⑨⑦⑧⑨ |⑤⑥⑦⑧|
⑨⑤⑥⑨ |⑨---|
67
⑥口口⑥ |①---|
①②③① |②③④⑤|
⑦④⑤⑦ |⑥-⑦-|
⑧⑨⑨⑧ |⑧-⑨-|
68
口②②口 |①---|
①③③① |--②③|
口口口口
口口口口

口口口口
⑥口口⑥
⑦④④⑦ |④-⑤-|
⑧⑤⑤⑧ |⑥⑦⑧-|
69
口口口口 |----|
口口口口 |----|
口口口口 |----|
口①②口 |①②--|
70
口②口① |①---|
⑥口②口 |②--③|
②④③口 |④-⑤-|
⑥口⑤⑥ |⑥---|
71
①口②口 |①---|
口②口口 |②--③|
口③口②
口口口口

⑤口口口
⑥口口⑤
⑦口④口 |④---|
⑧口口⑤ |⑤⑥⑦⑧|
72
口③口① |①-②-|
⑦②③口 |③--④|
口⑤⑦④ |⑤-⑥-|
⑦③⑥口 |⑦---|
73
①口②口 |①---|
⑤②口⑤ |②-③-|
⑥③④② |④---|
⑦口口⑤ |⑤-⑥-⑦-|
74
口②口① |①-②-|
⑥口③口 |③--④|
口⑤④② |⑤---|
⑥②⑥口 |⑥---|
75
①口②⑥ |①---|
③②口⑦ |②---|
④口③⑧ |③-④-⑤-|
⑤②口⑨ |⑥⑦⑧⑨|
76
口⑥⑦⑥ |①-②-|
④⑤②口 |③--④|
口②③⑥ |⑤-⑥-|
口①②口 |⑦---|
77
③口口口 |①-②-|
口口口口 |-③--|
口口①口
②口口①

口⑦⑦口
④⑦⑥⑤
⑤⑥⑦④ |④-⑤-⑥-|
口⑦⑦口 |⑦---|


不確定度: 0

最終更新:2013年03月29日 20:50