いっぽんでもニンジン
なぎらけんいち

BASIC

Level: 3
BPM: 137
Notes: 208

全程BPM在137附近飄忽不定
1
口口口口 |------|
口口口口 |------|
口口口口 |------|
口口口口 |------|
2
口口口口 |①-----|
口口口口 |------|
口口口口 |②-----|
②口口① |------|
3
口口口口 |①-----|
口口口口 |------|
②口口① |②-----|
口口口口 |------|
4
口口口口 |①-----|
口口口口 |------|
口②①口 |②-----|
口口口口 |------|
5
口口口口 |①-----|
口①①口 |------|
口口口口
口口口口

口口口口
口②②口
口口口口 |------|
口口口口 |②-----|
6
口口口口 |①-----|
口②口口 |------|
口①口口 |②-----|
口口口口 |------|
7
①口口口 |①-----|
口②②口 |------|
口口口口 |------|
口口口口 |②-----|
8
口口口口 |①-----|
口口②口 |------|
口口①口 |②-----|
口口口口 |------|
9
口口口① |①-----|
口②②口 |------|
口口口口 |------|
口口口口 |②-----|
10
口口口口 |①-----|
①口口口 |------|
②口口口 |②-----|
口口口口 |------|
11
口口口口 |①-----|
口②②口 |------|
口口口口 |------|
口①口口 |②-----|
12
口口口口 |①-----|
口口口① |------|
口口口② |②-----|
口口口口 |------|
13
口口口口 |①-----|
口②②口 |------|
口口口口 |------|
口口①口 |②-----|
14
口口口口 |①-----|
②口口口 |------|
口①口口 |②-----|
口口口口 |------|
15
口①口口 |①-----|
口②②口 |------|
口口口口 |------|
口口口口 |②-----|
16
口口口口 |①-----|
口口口② |------|
口口①口 |②-----|
口口口口 |------|
17
口口①口 |①-----|
口②②口 |------|
口口口口 |------|
口口口口 |②-----|
18
口口口口 |①-----|
口口口口 |------|
①口口口 |②-----|
口②口口 |------|
19
口口口口 |①-----|
口②②口 |------|
口口①口 |------|
口口口口 |②-----|
20
口口口口 |①-----|
口口口口 |------|
口口口① |②-----|
口口②口 |------|
21
④③③④ |①-----|
口②②口 |②-----|
口①①口 |③-----|
口口口口 |④-----|
22
口口口口 |①-----|
口口①口 |------|
口②口口 |②-----|
口口口口 |------|
23
口口口口 |①-----|
口②②口 |------|
口口口口 |------|
①口口口 |②-----|
24
口口口口 |①-----|
口口口口 |------|
口口②口 |②-----|
口口口① |------|
25
口②②口 |------|
口①①口 |①-----|
口口口口 |②-----|
口口口口 |------|
26
口口口口 |①-----|
口口口口 |②-----|
口④②口 |③-----|
口③①口 |④-----|
27
口口口口 |①-----|
口口口口 |②-----|
口④②口 |③-----|
口③①口 |④-----|
28
口口口口 |①-----|
口④②口 |②-----|
口③①口 |③-----|
口口口口 |④-----|
29
口③③口 |①-----|
口口②口 |②-----|
口口①口 |③-----|
口口口口 |------|
30
口口口口 |①-----|
②口①口 |------|
口①口② |②-----|
口口口口 |------|
31
口①①口 |----①-|
口口口口 |------|
口②②口 |②-----|
口口口口 |------|
32
口口口口 |①-----|
口口口口 |------|
口口口② |②-----|
口口①口 |------|
33
口口口② |①-----|
口口①口 |------|
口口口口 |②-----|
口口口口 |------|
34
口口口口 |①-----|
口口口口 |------|
②口口口 |②-----|
口①口口 |------|
35
②口口口 |①-----|
口①口口 |------|
口口口口 |②-----|
口口口口 |------|
36
口口口口 |①-----|
口口口口 |------|
口口口② |②-----|
口口①口 |------|
37
口口口② |①-----|
口口①口 |------|
口口口口 |②-----|
口口口口 |------|
38
口口口口 |①-----|
口口口口 |------|
②口口口 |②-----|
口①口口 |------|
39
②口口口 |①-----|
口①口口 |------|
口口口口 |②-----|
口口口口 |------|
40
口口口口 |①-----|
①②③④ |②-----|
口口口口 |③-----|
口口口口 |④-----|
41
口口口口 |①-----|
口口口口 |②-----|
④③②① |③-----|
口口口口 |④-----|
42
口口口口 |①-----|
口口口口 |②-----|
口口口口 |③-----|
①②③④ |④-----|
43
口口口口 |①-----|
口口口口 |------|
口①①口 |------|
口②②口 |②-----|
44
口口口口 |①-----|
口口口口 |------|
①口口口 |②-----|
口②口口 |------|
45
口口口口 |①-----|
口口口口 |②-----|
口③③② |------|
口口口① |③-----|
46
口口口口 |①-----|
口口口① |------|
口口②口 |②-----|
口口口口 |------|
47
口口口口 |①-----|
②③③口 |②-----|
①口口口 |------|
口口口口 |③-----|
48
①口口口 |①-----|
口②口口 |------|
口口口口 |②-----|
口口口口 |------|
49
口③③② |①-----|
口口口① |②-----|
口口口口 |------|
口口口口 |③-----|
50
口口口口 |①-----|
口口口① |------|
口口②口 |②-----|
口口口口 |------|
51
口口口口 |①-----|
②口口口 |②-----|
①口口口 |------|
口③③口 |③-----|
52
口口口口 |①-----|
口口口口 |------|
②口口① |②-----|
口口口口 |------|
53
口口口口 |①-----|
口口口② |②-----|
口口①口
口口口口

口口口口
口口口口
口③③口 |------|
口口口口 |③-----|
54
口口口口 |①-----|
①口口② |------|
口口口口 |②-----|
口口口口 |------|
55
口③口口 |①-----|
②④④口 |②-----|
口①口口 |③-----|
口口口口 |④-----|
56
口口口① |①-----|
口口口② |②-----|
口口③口 |③-----|
口口口口 |------|
57
②③③口 |①-----|
口口口口 |------|
①口口口 |②-----|
口口口口 |③-----|
58
口口口口 |①-----|
①口口口 |②-----|
②口口口 |③-----|
口③口口 |------|
59
④③③④ |①-----|
口②②口 |②-----|
口①①口 |③-----|
口口口口 |④-----|
60
口口口口 |①-----|
口口口口 |------|
②口口① |②-----|
口口口口 |------|
61
口口口口 |①-----|
④口③④ |②-----|
口②口口 |③-----|
口口①口 |④-----|
62
口②③口 |------|
口口①口 |①-----|
口口口口 |②-----|
口口口口 |③-----|
63
③口口③ |①-----|
口①口口 |②-----|
②口口② |③-----|
口口口口 |------|
64
口口口口 |①-----|
口口口口 |②-----|
口④③口 |③-----|
口口②① |④-----|
65
口口口口 |①-----|
④口口口 |②-----|
③口口口 |③-----|
②①口口 |④-----|
66
口口口口 |①-----|
口①④口 |②-----|
口②③口 |③-----|
口口口口 |④-----|
67
口③③口 |①-----|
②口口① |②-----|
口口口口 |③-----|
口口口口 |------|


不确定度: 0

最終更新:2012年12月28日 02:46