いっぽんでもニンジン
なぎらけんいち

ADVANCED

Level: 6
BPM: 137
Notes: 348

全程BPM在137附近飄忽不定
1
口口口口 |------|
口口口口 |------|
口口口口 |------|
口口口口 |------|
2
③口口② |①---②-|
口口口口 |----③-|
①⑤④口 |----④-|
口口⑥口 |⑤---⑥-|
3
口口口口 |①-----|
口③口口 |②---③-|
口口口② |------|
口①口口 |------|
4
⑥口口口 |----①-|
口口口① |----②-|
口④⑤口 |③---④-|
口②③口 |⑤---⑥-|
5
口②②口 |①-----|
口口口① |------|
口口口口 |------|
口口口口 |②-----|
6
口口口口 |①-----|
④口口口 |②-----|
①口口口 |③-----|
③口口② |----④-|
7
口⑤⑤口 |①---②-|
口口④② |③---④-|
口③①口 |------|
口口口口 |⑤-----|
8
口口口口 |----①-|
⑤口口口 |②---③-|
①②④③ |④-----|
口口口口 |----⑤-|
9
口④④口 |①-----|
口口口③ |②---③-|
①口口口 |------|
口口②口 |④-----|
10
口口口口 |①-----|
口口口④ |②-----|
①口口口 |③-----|
③口口② |----④-|
11
口⑤⑤口 |①---②-|
②④口口 |③---④-|
口①③口 |------|
口口口口 |⑤-----|
12
口口口口 |----①-|
①②④③ |②---③-|
⑤口口口 |④-----|
口口口口 |----⑤-|
13
口⑤⑤口 |①---②-|
口口口口 |③---④-|
口④②口 |------|
口③①口 |⑤-----|
14
⑤口口口 |----①-|
口①口② |②---③-|
③口④口 |④-----|
口口口口 |----⑤-|
15
口⑤⑤口 |①---②-|
④口口② |③---④-|
③口口① |------|
口口口口 |⑤-----|
16
口口口⑤ |----①-|
①口②口 |②---③-|
口③口④ |④-----|
口口口口 |----⑤-|
17
口⑤⑤口 |①---②-|
④口口④ |③-----|
②口①口 |④-----|
口③口口 |⑤-----|
18
口口口口 |①---②-|
②口④口 |③---④-|
①⑤③⑥ |⑤-----|
口口口口 |----⑥-|
19
口③③口 |①-----|
②口口② |----②-|
口口口口 |------|
口①①口 |③-----|
20
口口口口 |①-----|
③口口口 |②-----|
①口口② |③-----|
口口口④ |----④-|
21
口④④口 |①-----|
口②①③ |②-----|
③①②口 |③-----|
口口口口 |④-----|
22
口口口口 |①-----|
③口口口 |②-----|
口口②口 |③-----|
①口口④ |----④-|
23
口⑤⑤口 |①---②-|
口口口④ |③---④-|
②口③口 |------|
口①口口 |⑤-----|
24
④口口④ |----①-|
口口口口 |----②-|
①口口③ |③-----|
口口②口 |----④-|
25
口②②口 |------|
口口口口 |①-----|
口①①口 |②-----|
口口口口 |------|
26
口口口口 |①-----|
④④②② |②-----|
口口口口 |③-----|
①①③③ |④-----|
27
口口口口 |①-----|
④④②② |②-----|
口口口口 |③-----|
①①③③ |④-----|
28
④④②② |①-----|
口口口口 |②-----|
①①③③ |③-----|
口口口口 |④-----|
29
口口口口 |①---②-|
口④④口 |③-----|
①口口② |④-----|
口③③口 |------|
30
口①②口 |①-----|
口口口口 |------|
②口口① |②-----|
口口口口 |------|
31
①口口① |----①-|
口口口口 |------|
②②②② |②-----|
口口口口 |------|
32
口口口口 |①-----|
口①④② |②-----|
口③口口 |③---④-|
口口口口 |------|
33
口⑥⑤口 |①---②-|
①口口④ |③---④-|
口②③口 |----⑤-|
口口口口 |⑥-----|
34
口⑤口口 |①---②-|
④口③口 |③-----|
口①②口 |④---⑤-|
口口口口 |------|
35
口口口口 |①---②-|
④口口① |③---④-|
口③②口 |------|
口口口口 |------|
36
口口口口 |①-----|
口口口口 |------|
口口口口 |------|
口①①口 |------|
37
口口口口 |----①-|
口②④⑦ |②---③-|
①⑤口③ |④---⑤-|
口口⑥口 |⑥---⑦-|
38
口口④口 |------|
①口口口 |①-----|
口③②口 |②---③-|
口口口口 |----④-|
39
口口口口 |----①-|
口口口口 |------|
口口①口 |------|
口口口口 |------|
40
③口口② |①---②-|
口口口口 |----③-|
①⑤④口 |----④-|
口⑦⑥口 |⑤--⑥-⑦|
41
口口口口 |-----①|
口②口口 |---②--|
口口口① |------|
口口口口 |------|
42
⑥口口口 |----①-|
口口口① |----②-|
口④⑤口 |③---④-|
口②③口 |⑤---⑥-|
43
口口②② |①-----|
口口口① |------|
口口口口 |------|
口口口口 |②-----|
44
口口口口 |①-----|
④口口口 |②-----|
①口口口 |③-----|
③口口② |----④-|
45
⑤⑤口口 |①---②-|
口口④② |③---④-|
口③①口 |------|
口口口口 |⑤-----|
46
口口口口 |----①-|
⑤口口口 |②---③-|
①②④③ |④-----|
口口口口 |----⑤-|
47
口口④④ |①-----|
口口口③ |②---③-|
①口口口 |------|
口口②口 |④-----|
48
口口口口 |①-----|
口口口④ |②-----|
①口口口 |③-----|
③口口② |----④-|
49
⑤⑤口口 |①---②-|
②④口口 |③---④-|
口①③口 |------|
口口口口 |⑤-----|
50
口口口口 |----①-|
①②④③ |②---③-|
⑤口口口 |④-----|
口口口口 |----⑤-|
51
口口⑤⑤ |①---②-|
口口口口 |③---④-|
口④②口 |------|
口③①口 |⑤-----|
52
⑤口口口 |----①-|
口①口② |②---③-|
③口④口 |④-----|
口口口口 |----⑤-|
53
⑤⑤口口 |①---②-|
④口口② |③---④-|
③口口① |------|
口口口口 |⑤-----|
54
口口口⑤ |----①-|
①口②口 |②---③-|
口③口④ |④-----|
口口口口 |----⑤-|
55
口口⑤⑤ |①---②-|
④口口④ |③-----|
②口①口 |④-----|
口③口口 |⑤-----|
56
口口口口 |①---②-|
②口④口 |③---④-|
①⑤③⑥ |⑤-----|
口口口口 |----⑥-|
57
③③口口 |①-----|
②口口② |----②-|
口口口口 |------|
口①①口 |③-----|
58
口口口口 |①-----|
③口口口 |②-----|
①口口② |③-----|
口口口④ |----④-|
59
口口④④ |①-----|
口②①③ |②-----|
③①②口 |③-----|
口口口口 |④-----|
60
口口口口 |①-----|
③口口口 |②-----|
口口②口 |③-----|
①口口④ |----④-|
61
⑤⑤口口 |①---②-|
口口口④ |③---④-|
②口③口 |------|
口①口口 |⑤-----|
62
④口口④ |----①-|
口口口口 |----②-|
①口口③ |③-----|
口口②口 |----④-|
63
口②②口 |------|
口③③口 |①-----|
口①①口 |②-----|
口口口口 |③-----|
64
③口口② |①---②-|
口口口口 |----③-|
①⑤④口 |----④-|
口口⑥口 |⑤---⑥-|
65
口口口口 |①-----|
口③口口 |②---③-|
口口口② |------|
口①口口 |------|
66
口口口口 |----①-|
⑥口口① |----②-|
口④⑤口 |③---④-|
口②③口 |⑤---⑥-|
67
口口口② |①---②-|
口⑤⑤口 |③---④-|
口⑤⑤① |⑤-----|
③口口④ |------|


不确定度: 0

最終更新:2012年12月28日 02:45