いっぽんでもニンジン
なぎらけんいち

EXTREME

Level: 9
BPM: 137
Notes: 609

全程BPM在137附近飄忽不定
1
口口口口 |------|
口口口口 |------|
口口口口 |------|
口口口口 |------|
2
②口口② |①---②-|
口口口口 |----③-|
③口口③
口①①口

口口口口
口口口口
口④口口 |----④-|
⑥口⑤口 |⑤---⑥-|
3
口口③口 |①-②-③-|
口②口口 |④---⑤-|
④口①口 |------|
口口口⑤ |------|
4
口①①口 |----①-|
口口口口 |----②-|
口口口口
口②②口

口⑥⑥口
④口口④
口⑤⑤口 |③---④-|
③口口③ |⑤---⑥-|
5
口口②口 |①-----|
口②②口 |------|
①口②① |------|
口口②口 |②-----|
6
口口口口 |①-----|
①口④口 |②-----|
口口口② |③-----|
③口口口 |----④-|
7
③口口④ |①---②-|
③口口④ |③---④-|
①①②②
口口口口

口⑤⑤口
口口⑤口
口⑤口口 |------|
口⑤⑤口 |⑤-----|
8
⑤口口⑤ |----①-|
口②④口 |②---③-|
①口口③ |④-----|
口口口口 |----⑤-|
9
口口口口 |①-----|
口②②口 |②---③-|
口①①口
③①①③

口口④口
口口口④
④口④口 |------|
口④口口 |④-----|
10
③口口② |①-----|
①口口口 |②-----|
口口④口 |③-----|
口口口口 |----④-|
11
⑤口⑤口 |①---②-|
⑤⑤⑤④ |③---④-|
②②⑤④ |------|
①①③③ |⑤-----|
12
口口口口 |----①-|
口口③口 |②---③-|
②①口口
口口口口

口口口口
口口口④
⑤口口口 |④-----|
口口口口 |----⑤-|
13
②口口③ |①---②-|
②口③口 |③---④-|
口④口①
④口①口

口⑤⑤口
口⑤口口
口口⑤口 |------|
口⑤⑤口 |⑤-----|
14
口⑤口口 |----①-|
口口口口 |②---③-|
③口口④ |④-----|
①口口② |----⑤-|
15
④⑤⑤③ |①---②-|
②⑤口① |③---④-|
④⑤⑤③ |------|
②⑤⑤① |⑤-----|
16
④口⑤② |----①-|
口③①口 |②---③-|
口口口口 |④-----|
口口口口 |----⑤-|
17
口口口口 |①---②-|
口②口② |③-----|
口口口口
①③①③

④⑤⑤④
口口⑤口
口口⑤口 |④-----|
口口⑤口 |⑤-----|
18
口口口⑤ |①---②-|
③口④口 |③---④-|
口①口② |⑤-----|
⑥口口口 |----⑥-|
19
②口口② |①-----|
口①①口 |----②-|
口①①口
口口口口

口口③口
口③口③
③口③口 |------|
口③口口 |③-----|
20
口口口④ |①-----|
③口口口 |②-----|
口口口② |③-----|
①口口口 |----④-|
21
口口口口 |①-----|
②口①口 |②-----|
口①口②
②口①口

口④④口
口④④③
③口④口 |③-----|
口④④③ |④-----|
22
①口口口 |①-----|
口口口② |②-----|
③口④口 |③-----|
口口口口 |----④-|
23
④②②④ |①---②-|
⑤④⑤⑤ |③---④-|
⑤口⑤⑤ |------|
①③③① |⑤-----|
24
口口①口 |----①-|
③①口③ |----②-|
②口④② |③-----|
口口口口 |----④-|
25
口③口口 |①-----|
③③③口 |②-----|
③③口② |③-----|
①④口② |④-----|
26
③③口① |①-----|
口③④① |②-----|
③口②① |③-----|
③③口① |④-----|
27
口口①① |①-----|
口口口① |②-----|
口口①①
②口①①

③③口④
③③③口
口③口口 |③-----|
口口口口 |④-----|
28
③③③③ |①-----|
③③②③ |②-----|
①④①① |③-----|
①①口① |④-----|
29
口②口口 |①-----|
口口口口 |②-----|
③③口① |③-----|
①①①① |------|
30
②②①① |①-----|
②②①① |------|
口②①① |②-----|
②②①① |------|
31
③口③③ |----①-|
②口②② |----②-|
①口①① |③-----|
口口口口 |------|
32
口口④口 |①-----|
口口①③ |②-----|
口口口口 |③---④-|
口①②口 |------|
33
口口④④ |①---②-|
②②口⑤ |③---④-|
口⑥③口 |⑤---⑥-|
⑦①口口 |⑦-----|
34
口口⑤口 |①---②-|
口②口④ |③-----|
①口口口 |④---⑤-|
口①③口 |------|
35
口口⑤口 |①---②-|
④口口⑤ |③---④-|
口口②口 |⑤-----|
口①③口 |------|
36
口口口口 |①-----|
口口口③ |②-----|
口口①口 |③-----|
口①②口 |------|
37
口口口⑧ |①---②-|
⑥④⑤⑤ |③---④-|
口⑦③② |⑤---⑥-|
口①③口 |⑦---⑧-|
38
口口④口 |①-----|
口口口③ |②-----|
口⑤口口 |③---④-|
口①②口 |----⑤-|
39
口③口② |①---②-|
⑥口④口 |----③-|
口⑦①⑤ |④-⑤-⑥-|
⑨口⑧口 |⑦-⑧-⑨-|
40
②口口② |①---②-|
口口口口 |----③-|
③④①③ |----④-|
⑥口⑤口 |⑤---⑥-|
41
口口③口 |①-②-③-|
⑥②口⑦ |④---⑤-|
④口①口 |⑥-----|
口口口⑤ |⑦-----|
42
口②②口 |①---②-|
口口口口 |----③-|
①口口口
口③③口

口⑦⑦口
⑤口口⑤
口⑥⑥口 |④---⑤-|
④口口④ |⑥---⑦-|
43
口口③口 |①-----|
口③③口 |②-----|
①口③① |------|
②②③口 |③-----|
44
口口口口 |①-----|
①口④口 |②-----|
口口口② |③-----|
③口口口 |----④-|
45
③口口④ |①---②-|
③口口④ |③---④-|
①①②②
口口口口

口⑤⑤口
口口⑤口
口⑤口口 |------|
口⑤⑤口 |⑤-----|
46
⑤口口⑤ |----①-|
口②④口 |②---③-|
①口口③ |④-----|
口口口口 |----⑤-|
47
口口口口 |①-----|
口②②口 |②---③-|
口①①口
③①①③

口口④口
口口口④
④口④口 |------|
口④口口 |④-----|
48
③口口② |①-----|
①口口口 |②-----|
口口④口 |③-----|
口口口口 |----④-|
49
⑤口⑤口 |①---②-|
⑤⑤⑤④ |③---④-|
②②⑤④ |------|
①①③③ |⑤-----|
50
口口口口 |----①-|
口口③口 |②---③-|
②①口口
口口口口

口口口口
口口口④
⑤口口口 |④-----|
口口口口 |----⑤-|
51
②口口③ |①---②-|
②口③口 |③---④-|
口④口①
④口①口

口⑤⑤口
口⑤口口
口口⑤口 |------|
口⑤⑤口 |⑤-----|
52
口⑤口口 |----①-|
口口口口 |②---③-|
③口口④ |④-----|
①口口② |----⑤-|
53
④⑤⑤③ |①---②-|
②⑤口① |③---④-|
④⑤⑤③ |------|
②⑤⑤① |⑤-----|
54
④口⑤② |----①-|
口③①口 |②---③-|
口口口口 |④-----|
口口口口 |----⑤-|
55
口口口口 |①---②-|
口②口② |③-----|
口口口口
①③①③

④⑤⑤④
口口⑤口
口口⑤口 |④-----|
口口⑤口 |⑤-----|
56
口口口⑤ |①---②-|
③口④口 |③---④-|
口①口② |⑤-----|
⑥口口口 |----⑥-|
57
②口口② |①-----|
口①①口 |----②-|
口①①口
口口口口

口口③口
口③口③
③口③口 |------|
口③口口 |③-----|
58
口口口④ |①-----|
③口口口 |②-----|
口口口② |③-----|
①口口口 |----④-|
59
口口口口 |①-----|
②口①口 |②-----|
口①口②
②口①口

口④④口
口④④③
③口④口 |③-----|
口④④③ |④-----|
60
①口口口 |①-----|
口口口② |②-----|
③口④口 |③-----|
口口口口 |----④-|
61
④②②④ |①---②-|
⑤④⑤⑤ |③---④-|
⑤口⑤⑤ |------|
①③③① |⑤-----|
62
口口①口 |----①-|
③①口③ |----②-|
②口④② |③-----|
口口口口 |----④-|
63
口③口口 |①-----|
③③③④ |②-----|
③③口② |③-----|
①口口② |④-----|
64
②口口② |①---②-|
口口口口 |----③-|
③口口③
口①①口

口口口口
口口口口
口④口口 |----④-|
⑥口⑤口 |⑤---⑥-|
65
口口③口 |①-②-③-|
⑥②口⑦ |④---⑤-|
④口①口 |⑥-----|
口口口⑤ |⑦-----|
66
口②②口 |①---②-|
口口口口 |----③-|
①口口口
口③③口

口⑦⑦口
⑤口口⑤
口⑥⑥口 |④---⑤-|
④口口④ |⑥---⑦-|
67
③口⑤② |①---②-|
④③②⑤ |③---④-|
①④口① |⑤-----|
口口口口 |------|


不确定度: 0

最終更新:2012年12月28日 02:44